  0
SECTION
  2
HEADER
  9
$ACADVER
  1
AC1014
999
I-DEAS 13 NX
  9
$EXTMIN
 10
0.0
 20
0.0
  9
$EXTMAX
 10
6.6E+001
 20
6.6E+001
  9
$TEXTSIZE
 40
1.25E-001
  9
$LTSCALE
 40
1.0
  9
$CLAYER
  8
V1L1
  9
$CECOLOR
 62
1
  9
$DIMASZ
 40
1.25E-001
  9
$DIMEXO
 40
6.25E-002
  9
$DIMDLI
 40
2.5E-001
  9
$DIMEXE
 40
1.25E-001
  9
$DIMTP
 40
5.0E-003
  9
$DIMTM
 40
-5.0E-003
  9
$DIMTXT
 40
1.25E-001
  9
$DIMLIM
 70
0
  9
$DIMTIH
 70
1
  9
$DIMTOH
 70
1
  9
$DIMSE1
 70
0
  9
$DIMSE2
 70
0
  9
$DIMTAD
 70
0
  9
$DIMASO
 70
1
  9
$DIMALT
 70
0
  9
$DIMALTD
 70
0
  9
$DIMTOFL
 70
1
  9
$DIMTIX
 70
0
  9
$DIMSAH
 70
0
  9
$DIMSTYLE
  2
DSTYLE1
  9
$DIMTFAC
 40
1.0
  9
$DIMGAP
 40
6.25E-002
  9
$LUNITS
 70
2
  9
$LUPREC
 70
3
  9
$FILLETRAD
 40
2.5E-001
  9
$AUNITS
 70
0
  9
$AUPREC
 70
1
  9
$CHAMFERA
 40
2.5E-001
  9
$CHAMFERB
 40
2.5E-001
  9
$ANGBASE
 50
0.0
  9
$ANGDIR
 70
0
  9
$PEXTMIN
 10
0.0
 20
0.0
 30
0.0
  9
$PEXTMAX
 10
6.6E+001
 20
6.6E+001
 30
0.0
  9
$PLIMMIN
 10
0.0
 20
0.0
  9
$PLIMMAX
 10
6.6E+001
 20
6.6E+001
  9
$PDMODE
 70
2
  9
$PDSIZE
 40
-1.0E-002
  9
$SPLINETYPE
 70
6
  9
$TILEMODE
 70
1
  9
$HANDLING
 70
1
  9
$HANDSEED
  5
f4240
  0
ENDSEC
  0
SECTION
  2
TABLES
  0
TABLE
  2
VPORT
  5
64
100
AcDbSymbolTable
 70
2
  0
VPORT
  5
65
100
AcDbSymbolTableRecord
100
AcDbViewportTableRecord
  2
*Active
 70
0
 10
0.0
 20
0.0
 11
6.6E+001
 21
6.6E+001
 12
3.3E+001
 22
3.3E+001
 13
0.0
 23
0.0
 14
1.0
 24
1.0
 15
0.0
 25
0.0
 16
0.0
 26
0.0
 36
1.0
 17
0.0
 27
0.0
 37
0.0
 40
6.6E+001
 41
1.0
 42
5.0E+001
 43
0.0
 44
0.0
 50
0.0
 51
0.0
 71
0
 72
1000
 73
1
 74
3
 75
0
 76
0
 77
0
 78
0
  0
ENDTAB
  0
TABLE
  2
LTYPE
  5
66
100
AcDbSymbolTable
 70
7
  0
LTYPE
  5
67
100
AcDbSymbolTableRecord
100
AcDbLinetypeTableRecord
  2
BYBLOCK
 70
0
  3

 72
65
 73
0
 40
0.0
  0
LTYPE
  5
68
100
AcDbSymbolTableRecord
100
AcDbLinetypeTableRecord
  2
BYLAYER
 70
0
  3

 72
65
 73
0
 40
0.0
  0
LTYPE
  5
69
100
AcDbSymbolTableRecord
100
AcDbLinetypeTableRecord
  2
CONTINUOUS
 70
0
  3

 72
65
 73
0
 40
0.0
  0
LTYPE
  5
6a
100
AcDbSymbolTableRecord
100
AcDbLinetypeTableRecord
  2
HIDDENNEW0
  3
_ 
 70
64
 72
65
 73
3
 40
1.875E-001
 49
6.25E-002
 74
0
 49
-6.25E-002
 74
0
 49
6.25E-002
 74
0
  0
LTYPE
  5
6b
100
AcDbSymbolTableRecord
100
AcDbLinetypeTableRecord
  2
HIDDENNEW1
  3
_ 
 70
64
 72
65
 73
3
 40
1.875E-001
 49
6.25E-002
 74
0
 49
-6.25E-002
 74
0
 49
6.25E-002
 74
0
  0
LTYPE
  5
6c
100
AcDbSymbolTableRecord
100
AcDbLinetypeTableRecord
  2
HIDDEN
  3
_ 
 70
64
 72
65
 73
3
 40
1.875E-001
 49
6.25E-002
 74
0
 49
-6.25E-002
 74
0
 49
6.25E-002
 74
0
  0
LTYPE
  5
6d
100
AcDbSymbolTableRecord
100
AcDbLinetypeTableRecord
  2
CENTERLINE
  3
_ 
 70
64
 72
65
 73
5
 40
1.25
 49
5.0E-001
 74
0
 49
-6.25E-002
 74
0
 49
1.25E-001
 74
0
 49
-6.25E-002
 74
0
 49
5.0E-001
 74
0
  0
LTYPE
  5
6e
100
AcDbSymbolTableRecord
100
AcDbLinetypeTableRecord
  2
PHANTOM
  3
_ 
 70
64
 72
65
 73
7
 40
1.1875
 49
3.75E-001
 74
0
 49
-6.25E-002
 74
0
 49
1.25E-001
 74
0
 49
-6.25E-002
 74
0
 49
1.25E-001
 74
0
 49
-6.25E-002
 74
0
 49
3.75E-001
 74
0
  0
LTYPE
  5
6f
100
AcDbSymbolTableRecord
100
AcDbLinetypeTableRecord
  2
SHORT_DASH
  3
_ 
 70
64
 72
65
 73
3
 40
1.25E-001
 49
3.125E-002
 74
0
 49
-6.25E-002
 74
0
 49
3.125E-002
 74
0
  0
LTYPE
  5
70
100
AcDbSymbolTableRecord
100
AcDbLinetypeTableRecord
  2
LONG_DASH
  3
_ 
 70
64
 72
65
 73
3
 40
3.75E-001
 49
9.375E-002
 74
0
 49
-1.875E-001
 74
0
 49
9.375E-002
 74
0
  0
ENDTAB
  0
TABLE
  2
LAYER
  5
71
100
AcDbSymbolTable
 70
258
  0
LAYER
  5
72
100
AcDbSymbolTableRecord
100
AcDbLayerTableRecord
  2
0
 70
0
 62
7
  6
CONTINUOUS
  0
LAYER
  5
73
100
AcDbSymbolTableRecord
100
AcDbLayerTableRecord
  2
V1L0
 70
0
 62
7
  6
CONTINUOUS
  0
LAYER
  5
74
100
AcDbSymbolTableRecord
100
AcDbLayerTableRecord
  2
Drafting_Hidden_Entities
 70
1
 62
7
  6
CONTINUOUS
  0
ENDTAB
  0
TABLE
  2
STYLE
  5
75
100
AcDbSymbolTable
 70
1
  0
STYLE
  5
76
100
AcDbSymbolTableRecord
100
AcDbTextStyleTableRecord
  2
STANDARD
 70
64
 40
0.0
 41
1.0
 50
0.0
 71
0
 42
1.0
  3
monotxt.shx
  4

  0
ENDTAB
  0
TABLE
  2
VIEW
  5
77
100
AcDbSymbolTable
 70
0
  0
ENDTAB
  0
TABLE
  2
UCS
  5
78
100
AcDbSymbolTable
 70
0
  0
ENDTAB
  0
TABLE
  2
APPID
  5
79
100
AcDbSymbolTable
 70
1
  0
APPID
  5
7a
100
AcDbSymbolTableRecord
100
AcDbRegAppTableRecord
  2
ACAD
 70
1
  0
ENDTAB
  0
TABLE
  2
DIMSTYLE
  5
7b
100
AcDbSymbolTable
 70
1
  0
DIMSTYLE
105
7c
100
AcDbSymbolTableRecord
100
AcDbDimStyleTableRecord
  2
DSTYLE1
 70
0
  3

  4

  5

  6

  7

 40
1.0
 41
1.6
 42
9.92E-001
 43
3.8E-001
 44
2.0
 45
1.0E-002
 46
0.0
 47
5.0E-003
 48
5.0E-003
 71
0
 72
0
 73
1
 74
1
 75
0
 76
0
 77
0
 78
7
140
1.28
141
9.0E-002
142
0.0
143
2.54E+001
144
1.0
145
0.0
146
1.0
147
1.0
170
0
171
2
172
0
173
0
174
0
175
0
176
0
177
0
178
0
270
2
271
2
272
4
273
2
274
2
275
0
280
0
281
0
282
0
283
1
284
0
285
0
286
0
287
3
288
0
  0
ENDTAB
  0
TABLE
  2
BLOCK_RECORD
  5
7d
100
AcDbSymbolTable
 70
0
  0
BLOCK_RECORD
  5
7e
100
AcDbSymbolTableRecord
100
AcDbBlockTableRecord
  2
*MODEL_SPACE
  0
BLOCK_RECORD
  5
7f
100
AcDbSymbolTableRecord
100
AcDbBlockTableRecord
  2
*PAPER_SPACE
  0
BLOCK_RECORD
  5
80
100
AcDbSymbolTableRecord
100
AcDbBlockTableRecord
  2
*D4871
  0
BLOCK_RECORD
  5
81
100
AcDbSymbolTableRecord
100
AcDbBlockTableRecord
  2
_AH1
  0
BLOCK_RECORD
  5
82
100
AcDbSymbolTableRecord
100
AcDbBlockTableRecord
  2
_AH2
  0
BLOCK_RECORD
  5
83
100
AcDbSymbolTableRecord
100
AcDbBlockTableRecord
  2
_AH12
  3
_AH
  0
BLOCK_RECORD
  5
84
100
AcDbSymbolTableRecord
100
AcDbBlockTableRecord
  2
_AH13
  3
_AH
  0
BLOCK_RECORD
  5
85
100
AcDbSymbolTableRecord
100
AcDbBlockTableRecord
  2
_AH14
  3
_AH
  0
BLOCK_RECORD
  5
86
100
AcDbSymbolTableRecord
100
AcDbBlockTableRecord
  2
_AH15
  3
_AH
  0
BLOCK_RECORD
  5
87
100
AcDbSymbolTableRecord
100
AcDbBlockTableRecord
  2
_AH16
  3
_AH
  0
BLOCK_RECORD
  5
88
100
AcDbSymbolTableRecord
100
AcDbBlockTableRecord
  2
_AH17
  3
_AH
  0
BLOCK_RECORD
  5
89
100
AcDbSymbolTableRecord
100
AcDbBlockTableRecord
  2
_AH18
  3
_AH
  0
BLOCK_RECORD
  5
8a
100
AcDbSymbolTableRecord
100
AcDbBlockTableRecord
  2
_AH19
  3
_AH
  0
BLOCK_RECORD
  5
8b
100
AcDbSymbolTableRecord
100
AcDbBlockTableRecord
  2
_AH20
  3
_AH
  0
BLOCK_RECORD
  5
8c
100
AcDbSymbolTableRecord
100
AcDbBlockTableRecord
  2
_AH21
  3
_AH
  0
BLOCK_RECORD
  5
8d
100
AcDbSymbolTableRecord
100
AcDbBlockTableRecord
  2
*TX156
  3
*TX
  0
BLOCK_RECORD
  5
8e
100
AcDbSymbolTableRecord
100
AcDbBlockTableRecord
  2
*TX157
  3
*TX
  0
BLOCK_RECORD
  5
8f
100
AcDbSymbolTableRecord
100
AcDbBlockTableRecord
  2
*VIEW1
  0
BLOCK_RECORD
  5
90
100
AcDbSymbolTableRecord
100
AcDbBlockTableRecord
  2
*VIEW9
  0
BLOCK_RECORD
  5
91
100
AcDbSymbolTableRecord
100
AcDbBlockTableRecord
  2
*VIEW12
  0
ENDTAB
  0
ENDSEC
  0
SECTION
  2
BLOCKS
  0
BLOCK
  5
92
100
AcDbEntity
100
AcDbBlockBegin
  2
*MODEL_SPACE
 70
0
 10
0.0
 20
0.0
 30
0.0
  3
*MODEL_SPACE
  1

  0
ENDBLK
  5
93
100
AcDbEntity
100
AcDbBlockEnd
  0
BLOCK
  5
94
100
AcDbEntity
100
AcDbBlockBegin
  2
*PAPER_SPACE
 70
0
 10
0.0
 20
0.0
 30
0.0
  3
*PAPER_SPACE
  1

  0
ENDBLK
  5
95
100
AcDbEntity
100
AcDbBlockEnd
  0
BLOCK
  5
96
100
AcDbEntity
100
AcDbBlockBegin
  2
*VIEW1
  3
*VIEW
 10
0.0
 20
0.0
 70
65
  0
TEXT
  5
97
100
AcDbEntity
  8
V0L1
100
AcDbText
  6
CONTINUOUS
 62
211
 10
0.0
 20
0.0
 40
1.0
  1
BV1XL0.0YL0.0XH6.6E+001YH6.6E+001
 41
1.25E-001
 50
1.0
 51
1.0
100
AcDbText
  0
TEXT
  5
98
100
AcDbEntity
  8
V0L1
100
AcDbText
  6
CONTINUOUS
 62
211
 10
0.0
 20
0.0
 40
1.0
  1
DV1X0.0Y0.0S1.0N1-MAIN
 41
1.25E-001
 50
1.0
 51
1.0
100
AcDbText
  0
ENDBLK
  5
99
100
AcDbEntity
100
AcDbBlockEnd
  0
BLOCK
  5
9a
100
AcDbEntity
100
AcDbBlockBegin
  2
*VIEW9
  3
*VIEW
 10
0.0
 20
0.0
 70
65
  0
TEXT
  5
9b
100
AcDbEntity
  8
V0L1
100
AcDbText
  6
CONTINUOUS
 62
211
 10
0.0
 20
0.0
 40
1.0
  1
BV9XL3.2822839E+001YL1.0626099XH6.3520458E+001YH6.5291475E+001
 41
1.25E-001
 50
1.0
 51
1.0
100
AcDbText
  0
TEXT
  5
9c
100
AcDbEntity
  8
V0L1
100
AcDbText
  6
CONTINUOUS
 62
211
 10
0.0
 20
0.0
 40
1.0
  1
DV9X4.6991374E+001Y1.6487816E+001S1.0N9-EXPLICIT
 41
1.25E-001
 50
1.0
 51
1.0
100
AcDbText
  0
ENDBLK
  5
9d
100
AcDbEntity
100
AcDbBlockEnd
  0
BLOCK
  5
9e
100
AcDbEntity
100
AcDbBlockBegin
  2
*VIEW12
  3
*VIEW
 10
0.0
 20
0.0
 70
65
  0
TEXT
  5
9f
100
AcDbEntity
  8
V0L1
100
AcDbText
  6
CONTINUOUS
 62
211
 10
0.0
 20
0.0
 40
1.0
  1
BV12XL1.0626099YL1.0626099XH3.2822839E+001YH6.5291475E+001
 41
1.25E-001
 50
1.0
 51
1.0
100
AcDbText
  0
TEXT
  5
a0
100
AcDbEntity
  8
V0L1
100
AcDbText
  6
CONTINUOUS
 62
211
 10
0.0
 20
0.0
 40
1.0
  1
DV12X1.6639592E+001Y1.6433164E+001S1.0N12-EXPLICIT
 41
1.25E-001
 50
1.0
 51
1.0
100
AcDbText
  0
ENDBLK
  5
a1
100
AcDbEntity
100
AcDbBlockEnd
  0
BLOCK
  5
a2
100
AcDbEntity
100
AcDbBlockBegin
  2
_AH12
  3
_AH
 10
0.0
 20
0.0
 70
64
  0
LINE
  5
a3
100
AcDbEntity
  8
V0L1
100
AcDbLine
  6
CONTINUOUS
 62
0
 10
0.0
 20
0.0
 11
1.0
 21
0.0
  0
LINE
  5
a4
100
AcDbEntity
  8
V0L1
100
AcDbLine
  6
CONTINUOUS
 62
0
 10
0.0
 20
0.0
 11
-1.0
 21
0.0
  0
ENDBLK
  5
a5
100
AcDbEntity
100
AcDbBlockEnd
  0
BLOCK
  5
a6
100
AcDbEntity
100
AcDbBlockBegin
  2
_AH13
  3
_AH
 10
0.0
 20
0.0
 70
64
  0
SOLID
  5
a7
100
AcDbEntity
  8
V0L1
100
AcDbTrace
  6
CONTINUOUS
 62
0
 10
0.0
 20
0.0
 11
1.0
 21
-1.66667E-001
 12
1.0
 22
1.66667E-001
 13
0.0
 23
0.0
  0
ENDBLK
  5
a8
100
AcDbEntity
100
AcDbBlockEnd
  0
BLOCK
  5
a9
100
AcDbEntity
100
AcDbBlockBegin
  2
_AH14
  3
_AH
 10
0.0
 20
0.0
 70
64
  0
ENDBLK
  5
aa
100
AcDbEntity
100
AcDbBlockEnd
  0
BLOCK
  5
ab
100
AcDbEntity
100
AcDbBlockBegin
  2
_AH15
  3
_AH
 10
0.0
 20
0.0
 70
64
  0
CIRCLE
  5
ac
100
AcDbEntity
  8
V0L1
100
AcDbCircle
  6
CONTINUOUS
 62
0
 10
0.0
 20
0.0
 40
1.66667E-001
  0
LINE
  5
ad
100
AcDbEntity
  8
V0L1
100
AcDbLine
  6
CONTINUOUS
 62
0
 10
0.0
 20
0.0
 11
-1.0
 21
0.0
  0
ENDBLK
  5
ae
100
AcDbEntity
100
AcDbBlockEnd
  0
BLOCK
  5
af
100
AcDbEntity
100
AcDbBlockBegin
  2
_AH16
  3
_AH
 10
0.0
 20
0.0
 70
64
  0
POLYLINE
  5
b0
100
AcDbEntity
  8
V0L1
100
AcDb2dPolyline
  6
CONTINUOUS
 62
0
 66
1
 40
1.66667E-001
 41
1.66667E-001
 70
0
  0
VERTEX
  5
b1
100
AcDbEntity
  8
V0L1
100
AcDbVertex
100
AcDb2dVertex
 42
1.0
 10
8.3335E-002
 20
0.0
 70
0
  0
VERTEX
  5
b2
100
AcDbEntity
  8
V0L1
100
AcDbVertex
100
AcDb2dVertex
 42
1.0
 10
-8.3335E-002
 20
0.0
 70
0
  0
VERTEX
  5
b3
100
AcDbEntity
  8
V0L1
100
AcDbVertex
100
AcDb2dVertex
 42
0.0
 10
8.3335E-002
 20
0.0
 70
0
  0
SEQEND
  5
b4
100
AcDbEntity
  0
LINE
  5
b5
100
AcDbEntity
  8
V0L1
100
AcDbLine
  6
CONTINUOUS
 62
0
 10
0.0
 20
0.0
 11
-1.0
 21
0.0
  0
ENDBLK
  5
b6
100
AcDbEntity
100
AcDbBlockEnd
  0
BLOCK
  5
b7
100
AcDbEntity
100
AcDbBlockBegin
  2
_AH17
  3
_AH
 10
0.0
 20
0.0
 70
64
  0
LINE
  5
b8
100
AcDbEntity
  8
V0L1
100
AcDbLine
  6
CONTINUOUS
 62
0
 10
-1.66667E-001
 20
-1.66667E-001
 11
1.66667E-001
 21
-1.66667E-001
  0
LINE
  5
b9
100
AcDbEntity
  8
V0L1
100
AcDbLine
  6
CONTINUOUS
 62
0
 10
1.66667E-001
 20
-1.66667E-001
 11
1.66667E-001
 21
1.66667E-001
  0
LINE
  5
ba
100
AcDbEntity
  8
V0L1
100
AcDbLine
  6
CONTINUOUS
 62
0
 10
1.66667E-001
 20
1.66667E-001
 11
-1.66667E-001
 21
1.66667E-001
  0
LINE
  5
bb
100
AcDbEntity
  8
V0L1
100
AcDbLine
  6
CONTINUOUS
 62
0
 10
-1.66667E-001
 20
1.66667E-001
 11
-1.66667E-001
 21
-1.66667E-001
  0
LINE
  5
bc
100
AcDbEntity
  8
V0L1
100
AcDbLine
  6
CONTINUOUS
 62
0
 10
0.0
 20
0.0
 11
-1.0
 21
0.0
  0
ENDBLK
  5
bd
100
AcDbEntity
100
AcDbBlockEnd
  0
BLOCK
  5
be
100
AcDbEntity
100
AcDbBlockBegin
  2
_AH18
  3
_AH
 10
0.0
 20
0.0
 70
64
  0
SOLID
  5
bf
100
AcDbEntity
  8
V0L1
100
AcDbTrace
  6
CONTINUOUS
 62
0
 10
-1.66667E-001
 20
-1.66667E-001
 11
1.66667E-001
 21
-1.66667E-001
 12
-1.66667E-001
 22
1.66667E-001
 13
1.66667E-001
 23
1.66667E-001
  0
LINE
  5
c0
100
AcDbEntity
  8
V0L1
100
AcDbLine
  6
CONTINUOUS
 62
0
 10
0.0
 20
0.0
 11
-1.0
 21
0.0
  0
ENDBLK
  5
c1
100
AcDbEntity
100
AcDbBlockEnd
  0
BLOCK
  5
c2
100
AcDbEntity
100
AcDbBlockBegin
  2
_AH19
  3
_AH
 10
0.0
 20
0.0
 70
64
  0
LINE
  5
c3
100
AcDbEntity
  8
V0L1
100
AcDbLine
  6
CONTINUOUS
 62
0
 10
-5.0E-001
 20
-5.0E-001
 11
5.0E-001
 21
5.0E-001
  0
LINE
  5
c4
100
AcDbEntity
  8
V0L1
100
AcDbLine
  6
CONTINUOUS
 62
0
 10
0.0
 20
0.0
 11
-1.0
 21
0.0
  0
ENDBLK
  5
c5
100
AcDbEntity
100
AcDbBlockEnd
  0
BLOCK
  5
c6
100
AcDbEntity
100
AcDbBlockBegin
  2
_AH20
  3
_AH
 10
0.0
 20
0.0
 70
64
  0
POLYLINE
  5
c7
100
AcDbEntity
  8
V0L1
100
AcDb2dPolyline
  6
CONTINUOUS
 62
0
 66
1
 40
2.0E-002
 41
2.0E-002
 70
0
  0
VERTEX
  5
c8
100
AcDbEntity
  8
V0L1
100
AcDbVertex
100
AcDb2dVertex
 42
4.1421356E-001
 10
-1.66667E-001
 20
-1.66667E-001
 70
0
  0
VERTEX
  5
c9
100
AcDbEntity
  8
V0L1
100
AcDbVertex
100
AcDb2dVertex
 42
0.0
 10
0.0
 20
0.0
 70
0
  0
SEQEND
  5
ca
100
AcDbEntity
  0
POLYLINE
  5
cb
100
AcDbEntity
  8
V0L1
100
AcDb2dPolyline
  6
CONTINUOUS
 62
0
 66
1
 40
2.0E-002
 41
2.0E-002
 70
0
  0
VERTEX
  5
cc
100
AcDbEntity
  8
V0L1
100
AcDbVertex
100
AcDb2dVertex
 42
4.1421356E-001
 10
1.66667E-001
 20
1.66667E-001
 70
0
  0
VERTEX
  5
cd
100
AcDbEntity
  8
V0L1
100
AcDbVertex
100
AcDb2dVertex
 42
0.0
 10
0.0
 20
0.0
 70
0
  0
SEQEND
  5
ce
100
AcDbEntity
  0
LINE
  5
cf
100
AcDbEntity
  8
V0L1
100
AcDbLine
  6
CONTINUOUS
 62
0
 10
0.0
 20
0.0
 11
-1.0
 21
0.0
  0
ENDBLK
  5
d0
100
AcDbEntity
100
AcDbBlockEnd
  0
BLOCK
  5
d1
100
AcDbEntity
100
AcDbBlockBegin
  2
_AH21
  3
_AH
 10
0.0
 20
0.0
 70
64
  0
LINE
  5
d2
100
AcDbEntity
  8
V0L1
100
AcDbLine
  6
CONTINUOUS
 62
0
 10
0.0
 20
0.0
 11
-1.0
 21
-1.66667E-001
  0
LINE
  5
d3
100
AcDbEntity
  8
V0L1
100
AcDbLine
  6
CONTINUOUS
 62
0
 10
-1.0
 20
-1.66667E-001
 11
-1.0
 21
1.66667E-001
  0
LINE
  5
d4
100
AcDbEntity
  8
V0L1
100
AcDbLine
  6
CONTINUOUS
 62
0
 10
-1.0
 20
1.66667E-001
 11
0.0
 21
0.0
  0
ENDBLK
  5
d5
100
AcDbEntity
100
AcDbBlockEnd
  0
BLOCK
  5
d6
100
AcDbEntity
100
AcDbBlockBegin
  2
*TX156
  3
*TX
 10
0.0
 20
0.0
 70
65
  0
TEXT
  5
d7
100
AcDbEntity
  8
V0L1
100
AcDbText
  6
CONTINUOUS
 62
1
 10
0.0
 20
0.0
 40
5.0E-001
  1
        DXF-GA25500A
100
AcDbText
  0
TEXT
  5
d8
100
AcDbEntity
  8
V0L1
100
AcDbText
  6
CONTINUOUS
 62
1
 10
0.0
 20
-7.5E-001
 40
5.0E-001
  1
         KA4C7DP43L
100
AcDbText
  0
TEXT
  5
d9
100
AcDbEntity
  8
V0L1
100
AcDbText
  6
CONTINUOUS
 62
1
 10
0.0
 20
-1.5
 40
5.0E-001
  1
         8/9/11 DW-
100
AcDbText
  0
TEXT
  5
da
100
AcDbEntity
  8
V0L1
100
AcDbText
  6
CONTINUOUS
 62
1
 10
0.0
 20
-2.25
 40
5.0E-001
  1
       KOOLTRONIC, INC.
100
AcDbText
  0
TEXT
  5
db
100
AcDbEntity
  8
V0L1
100
AcDbText
  6
CONTINUOUS
 62
1
 10
0.0
 20
-3.0
 40
5.0E-001
  1
GEOMETRY IS SUBJECT TO CHANGE
100
AcDbText
  0
ENDBLK
  5
dc
100
AcDbEntity
100
AcDbBlockEnd
  0
BLOCK
  5
dd
100
AcDbEntity
100
AcDbBlockBegin
  2
*TX157
  3
*TX
 10
0.0
 20
0.0
 70
65
  0
TEXT
  5
de
100
AcDbEntity
  8
V0L1
100
AcDbText
  6
CONTINUOUS
 62
1
 10
0.0
 20
0.0
 40
1.25E-001
  1
EXTERNAL MOUNTING PLAN
100
AcDbText
  0
TEXT
  5
df
100
AcDbEntity
  8
V0L1
100
AcDbText
  6
CONTINUOUS
 62
1
 10
0.0
 20
-1.875E-001
 40
1.25E-001
  1
 
100
AcDbText
  0
ENDBLK
  5
e0
100
AcDbEntity
100
AcDbBlockEnd
  0
BLOCK
  5
e1
100
AcDbEntity
100
AcDbBlockBegin
  2
_AH1
 70
0
 10
0.0
 20
0.0
  3
_AH1
  0
LINE
  5
e2
100
AcDbEntity
  8
V0L1
100
AcDbLine
  6
CONTINUOUS
 62
0
 10
-1.0
 20
1.66667E-001
 11
0.0
 21
0.0
  0
LINE
  5
e3
100
AcDbEntity
  8
V0L1
100
AcDbLine
  6
CONTINUOUS
 62
0
 10
0.0
 20
0.0
 11
-1.0
 21
-1.66667E-001
  0
LINE
  5
e4
100
AcDbEntity
  8
V0L1
100
AcDbLine
  6
CONTINUOUS
 62
0
 10
-1.0
 20
1.66667E-001
 11
-1.0
 21
-1.66667E-001
  0
LINE
  5
e5
100
AcDbEntity
  8
V0L1
100
AcDbLine
  6
CONTINUOUS
 62
0
 10
0.0
 20
0.0
 11
-1.0
 21
0.0
  0
ENDBLK
  5
e6
100
AcDbEntity
100
AcDbBlockEnd
  0
BLOCK
  5
e7
100
AcDbEntity
100
AcDbBlockBegin
  2
_AH2
 70
0
 10
0.0
 20
0.0
  3
_AH2
  0
LINE
  5
e8
100
AcDbEntity
  8
V0L1
100
AcDbLine
  6
CONTINUOUS
 62
0
 10
-1.0
 20
1.66667E-001
 11
0.0
 21
0.0
  0
LINE
  5
e9
100
AcDbEntity
  8
V0L1
100
AcDbLine
  6
CONTINUOUS
 62
0
 10
0.0
 20
0.0
 11
-1.0
 21
-1.66667E-001
  0
LINE
  5
ea
100
AcDbEntity
  8
V0L1
100
AcDbLine
  6
CONTINUOUS
 62
0
 10
0.0
 20
0.0
 11
-1.0
 21
0.0
  0
ENDBLK
  5
eb
100
AcDbEntity
100
AcDbBlockEnd
  0
BLOCK
  5
ec
100
AcDbEntity
100
AcDbBlockBegin
  2
*D4871
  3
*D
 10
0.0
 20
0.0
 70
65
  0
LINE
  5
ed
100
AcDbEntity
  8
V12L1
100
AcDbLine
  6
CONTINUOUS
 62
1
 10
8.8026724
 20
3.9275166E+001
 11
8.8026724
 21
3.0737281E+001
  0
LINE
  5
ee
100
AcDbEntity
  8
V12L1
100
AcDbLine
  6
CONTINUOUS
 62
1
 10
7.6756724
 20
5.4096166E+001
 11
7.6756724
 21
3.0737281E+001
  0
LINE
  5
ef
100
AcDbEntity
  8
V12L1
100
AcDbLine
  6
CONTINUOUS
 62
1
 10
1.2802672E+001
 20
3.2737281E+001
 11
8.8026724
 21
3.2737281E+001
  0
LINE
  5
f0
100
AcDbEntity
  8
V12L1
100
AcDbLine
  6
CONTINUOUS
 62
1
 10
7.6756724
 20
3.2737281E+001
 11
5.3120972
 21
3.2737281E+001
  0
TEXT
  5
f1
100
AcDbEntity
  8
V12L1
100
AcDbText
  6
CONTINUOUS
 62
1
 10
-8.0790278E-001
 20
3.2097281E+001
 40
1.28
  1
1.13
100
AcDbText
  0
INSERT
  5
f2
100
AcDbEntity
100
AcDbBlockReference
  2
_AH1
  8
V12L1
 62
1
 10
8.8026724
 20
3.2737281E+001
 41
1.6
 42
1.6
 43
1.6
 50
1.8E+002
  0
INSERT
  5
f3
100
AcDbEntity
100
AcDbBlockReference
  2
_AH1
  8
V12L1
 62
1
 10
7.6756724
 20
3.2737281E+001
 41
1.6
 42
1.6
 43
1.6
 50
0.0
  0
ENDBLK
  5
f4
100
AcDbEntity
100
AcDbBlockEnd
  0
ENDSEC
  0
SECTION
  2
ENTITIES
  0
LINE
  5
f5
100
AcDbEntity
  8
V12L1
100
AcDbLine
  6
HIDDEN
 62
1
 10
2.3557686E+001
 20
2.0455166E+001
 11
2.3557686E+001
 21
1.3062166E+001
  0
POLYLINE
  5
f6
100
AcDbEntity
  8
V12L1
100
AcDb2dPolyline
  6
CONTINUOUS
 62
1
 66
1
 40
2.0E-002
 41
2.0E-002
 70
0
  0
VERTEX
  5
f7
100
AcDbEntity
  8
V12L1
100
AcDbVertex
100
AcDb2dVertex
 42
0.0
 10
2.4763672E+001
 20
5.5016166E+001
 70
0
  0
VERTEX
  5
f8
100
AcDbEntity
  8
V12L1
100
AcDbVertex
100
AcDb2dVertex
 42
0.0
 10
2.4753672E+001
 20
5.5016166E+001
 70
0
  0
SEQEND
  5
f9
100
AcDbEntity
  0
LINE
  5
fa
100
AcDbEntity
  8
V12L1
100
AcDbLine
  6
CONTINUOUS
 62
1
 10
7.6756724
 20
1.1687166E+001
 11
2.4763672E+001
 21
1.1687166E+001
  0
LINE
  5
fb
100
AcDbEntity
  8
V12L1
100
AcDbLine
  6
CONTINUOUS
 62
1
 10
2.4763672E+001
 20
1.1687166E+001
 11
2.4763672E+001
 21
5.5088166E+001
  0
LINE
  5
fc
100
AcDbEntity
  8
V12L1
100
AcDbLine
  6
CONTINUOUS
 62
1
 10
2.4763672E+001
 20
5.5088166E+001
 11
7.6756724
 21
5.5088166E+001
  0
LINE
  5
fd
100
AcDbEntity
  8
V12L1
100
AcDbLine
  6
CONTINUOUS
 62
1
 10
7.6756724
 20
5.5088166E+001
 11
7.6756724
 21
1.1687166E+001
  0
TEXT
  5
fe
100
AcDbEntity
  8
V12L1
100
AcDbText
  6
CONTINUOUS
 62
1
 10
-6.3739226
 20
6.5435463E+001
 40
1.25E-001
  1
INTERNAL MOUNTING PLAN
100
AcDbText
  0
DIMENSION
  5
ff
100
AcDbEntity
  8
V12LDrafting_Hidden_Entities
100
AcDbDimension
  6
CONTINUOUS
 62
1
  2
*D4871
  3
DSTYLE1
 10
7.6756724
 20
3.2737281E+001
 11
1.7520972
 21
3.2737281E+001
 70
128
100
AcDbAlignedDimension
 13
8.8026724
 23
4.0267166E+001
 14
7.6756724
 24
5.5088166E+001
 40
2.0
 50
0.0
100
AcDbRotatedDimension
1001
ACAD
1000
DSTYLE
1002
{
1070
173
1070
0
1070
5
1000
_AH1
1002
}
  0
TEXT
  5
100
100
AcDbEntity
  8
V12L1
100
AcDbText
  6
CONTINUOUS
 62
1
 10
1.4538243E+001
 20
1.68936E+001
 40
5.0E-001
  1
CUTOUT
100
AcDbText
  0
TEXT
  5
101
100
AcDbEntity
  8
V12L1
100
AcDbText
  6
CONTINUOUS
 62
1
 10
1.4538243E+001
 20
3.7004615E+001
 40
5.0E-001
  1
CUTOUT
100
AcDbText
  0
LINE
  5
102
100
AcDbEntity
  8
V9L1
100
AcDbLine
  6
CONTINUOUS
 62
1
 10
5.492191E+001
 20
5.4551728E+001
 11
5.442191E+001
 21
5.4551728E+001
  0
LINE
  5
103
100
AcDbEntity
  8
V9L1
100
AcDbLine
  6
CONTINUOUS
 62
1
 10
5.467191E+001
 20
5.4801728E+001
 11
5.467191E+001
 21
5.4301728E+001
  0
LINE
  5
104
100
AcDbEntity
  8
V9L1
100
AcDbLine
  6
CONTINUOUS
 62
1
 10
5.502191E+001
 20
5.4551728E+001
 11
5.507791E+001
 21
5.4551728E+001
  0
LINE
  5
105
100
AcDbEntity
  8
V9L1
100
AcDbLine
  6
CONTINUOUS
 62
1
 10
5.467191E+001
 20
5.4901728E+001
 11
5.467191E+001
 21
5.4957728E+001
  0
LINE
  5
106
100
AcDbEntity
  8
V9L1
100
AcDbLine
  6
CONTINUOUS
 62
1
 10
5.432191E+001
 20
5.4551728E+001
 11
5.426591E+001
 21
5.4551728E+001
  0
LINE
  5
107
100
AcDbEntity
  8
V9L1
100
AcDbLine
  6
CONTINUOUS
 62
1
 10
5.467191E+001
 20
5.4201728E+001
 11
5.467191E+001
 21
5.4145728E+001
  0
LINE
  5
108
100
AcDbEntity
  8
V9L1
100
AcDbLine
  6
CONTINUOUS
 62
1
 10
4.766491E+001
 20
5.4551728E+001
 11
4.716491E+001
 21
5.4551728E+001
  0
LINE
  5
109
100
AcDbEntity
  8
V9L1
100
AcDbLine
  6
CONTINUOUS
 62
1
 10
4.741491E+001
 20
5.4801728E+001
 11
4.741491E+001
 21
5.4301728E+001
  0
LINE
  5
10a
100
AcDbEntity
  8
V9L1
100
AcDbLine
  6
CONTINUOUS
 62
1
 10
4.776491E+001
 20
5.4551728E+001
 11
4.782091E+001
 21
5.4551728E+001
  0
LINE
  5
10b
100
AcDbEntity
  8
V9L1
100
AcDbLine
  6
CONTINUOUS
 62
1
 10
4.741491E+001
 20
5.4901728E+001
 11
4.741491E+001
 21
5.4957728E+001
  0
LINE
  5
10c
100
AcDbEntity
  8
V9L1
100
AcDbLine
  6
CONTINUOUS
 62
1
 10
4.706491E+001
 20
5.4551728E+001
 11
4.700891E+001
 21
5.4551728E+001
  0
LINE
  5
10d
100
AcDbEntity
  8
V9L1
100
AcDbLine
  6
CONTINUOUS
 62
1
 10
4.741491E+001
 20
5.4201728E+001
 11
4.741491E+001
 21
5.4145728E+001
  0
LINE
  5
10e
100
AcDbEntity
  8
V9L1
100
AcDbLine
  6
CONTINUOUS
 62
1
 10
4.040791E+001
 20
5.4551728E+001
 11
3.990791E+001
 21
5.4551728E+001
  0
LINE
  5
10f
100
AcDbEntity
  8
V9L1
100
AcDbLine
  6
CONTINUOUS
 62
1
 10
4.015791E+001
 20
5.4801728E+001
 11
4.015791E+001
 21
5.4301728E+001
  0
LINE
  5
110
100
AcDbEntity
  8
V9L1
100
AcDbLine
  6
CONTINUOUS
 62
1
 10
4.050791E+001
 20
5.4551728E+001
 11
4.056391E+001
 21
5.4551728E+001
  0
LINE
  5
111
100
AcDbEntity
  8
V9L1
100
AcDbLine
  6
CONTINUOUS
 62
1
 10
4.015791E+001
 20
5.4901728E+001
 11
4.015791E+001
 21
5.4957728E+001
  0
LINE
  5
112
100
AcDbEntity
  8
V9L1
100
AcDbLine
  6
CONTINUOUS
 62
1
 10
3.980791E+001
 20
5.4551728E+001
 11
3.975191E+001
 21
5.4551728E+001
  0
LINE
  5
113
100
AcDbEntity
  8
V9L1
100
AcDbLine
  6
CONTINUOUS
 62
1
 10
4.015791E+001
 20
5.4201728E+001
 11
4.015791E+001
 21
5.4145728E+001
  0
LINE
  5
114
100
AcDbEntity
  8
V9L1
100
AcDbLine
  6
CONTINUOUS
 62
1
 10
5.4462794E+001
 20
3.9639818E+001
 11
5.3962794E+001
 21
3.9639818E+001
  0
LINE
  5
115
100
AcDbEntity
  8
V9L1
100
AcDbLine
  6
CONTINUOUS
 62
1
 10
5.4212794E+001
 20
3.9889818E+001
 11
5.4212794E+001
 21
3.9389818E+001
  0
LINE
  5
116
100
AcDbEntity
  8
V9L1
100
AcDbLine
  6
CONTINUOUS
 62
1
 10
5.4562794E+001
 20
3.9639818E+001
 11
5.4618794E+001
 21
3.9639818E+001
  0
LINE
  5
117
100
AcDbEntity
  8
V9L1
100
AcDbLine
  6
CONTINUOUS
 62
1
 10
5.4212794E+001
 20
3.9989818E+001
 11
5.4212794E+001
 21
4.0045818E+001
  0
LINE
  5
118
100
AcDbEntity
  8
V9L1
100
AcDbLine
  6
CONTINUOUS
 62
1
 10
5.3862794E+001
 20
3.9639818E+001
 11
5.3806794E+001
 21
3.9639818E+001
  0
LINE
  5
119
100
AcDbEntity
  8
V9L1
100
AcDbLine
  6
CONTINUOUS
 62
1
 10
5.4212794E+001
 20
3.9289818E+001
 11
5.4212794E+001
 21
3.9233818E+001
  0
LINE
  5
11a
100
AcDbEntity
  8
V9L1
100
AcDbLine
  6
CONTINUOUS
 62
1
 10
4.0865794E+001
 20
3.9639818E+001
 11
4.0365794E+001
 21
3.9639818E+001
  0
LINE
  5
11b
100
AcDbEntity
  8
V9L1
100
AcDbLine
  6
CONTINUOUS
 62
1
 10
4.0615794E+001
 20
3.9889818E+001
 11
4.0615794E+001
 21
3.9389818E+001
  0
LINE
  5
11c
100
AcDbEntity
  8
V9L1
100
AcDbLine
  6
CONTINUOUS
 62
1
 10
4.0965794E+001
 20
3.9639818E+001
 11
4.1021794E+001
 21
3.9639818E+001
  0
LINE
  5
11d
100
AcDbEntity
  8
V9L1
100
AcDbLine
  6
CONTINUOUS
 62
1
 10
4.0615794E+001
 20
3.9989818E+001
 11
4.0615794E+001
 21
4.0045818E+001
  0
LINE
  5
11e
100
AcDbEntity
  8
V9L1
100
AcDbLine
  6
CONTINUOUS
 62
1
 10
4.0265794E+001
 20
3.9639818E+001
 11
4.0209794E+001
 21
3.9639818E+001
  0
LINE
  5
11f
100
AcDbEntity
  8
V9L1
100
AcDbLine
  6
CONTINUOUS
 62
1
 10
4.0615794E+001
 20
3.9289818E+001
 11
4.0615794E+001
 21
3.9233818E+001
  0
LINE
  5
120
100
AcDbEntity
  8
V9L1
100
AcDbLine
  6
CONTINUOUS
 62
1
 10
5.4462794E+001
 20
2.8499818E+001
 11
5.3962794E+001
 21
2.8499818E+001
  0
LINE
  5
121
100
AcDbEntity
  8
V9L1
100
AcDbLine
  6
CONTINUOUS
 62
1
 10
5.4212794E+001
 20
2.8749818E+001
 11
5.4212794E+001
 21
2.8249818E+001
  0
LINE
  5
122
100
AcDbEntity
  8
V9L1
100
AcDbLine
  6
CONTINUOUS
 62
1
 10
5.4562794E+001
 20
2.8499818E+001
 11
5.4618794E+001
 21
2.8499818E+001
  0
LINE
  5
123
100
AcDbEntity
  8
V9L1
100
AcDbLine
  6
CONTINUOUS
 62
1
 10
5.4212794E+001
 20
2.8849818E+001
 11
5.4212794E+001
 21
2.8905818E+001
  0
LINE
  5
124
100
AcDbEntity
  8
V9L1
100
AcDbLine
  6
CONTINUOUS
 62
1
 10
5.3862794E+001
 20
2.8499818E+001
 11
5.3806794E+001
 21
2.8499818E+001
  0
LINE
  5
125
100
AcDbEntity
  8
V9L1
100
AcDbLine
  6
CONTINUOUS
 62
1
 10
5.4212794E+001
 20
2.8149818E+001
 11
5.4212794E+001
 21
2.8093818E+001
  0
LINE
  5
126
100
AcDbEntity
  8
V9L1
100
AcDbLine
  6
CONTINUOUS
 62
1
 10
4.0865794E+001
 20
2.8497318E+001
 11
4.0365794E+001
 21
2.8497318E+001
  0
LINE
  5
127
100
AcDbEntity
  8
V9L1
100
AcDbLine
  6
CONTINUOUS
 62
1
 10
4.0615794E+001
 20
2.8747318E+001
 11
4.0615794E+001
 21
2.8247318E+001
  0
LINE
  5
128
100
AcDbEntity
  8
V9L1
100
AcDbLine
  6
CONTINUOUS
 62
1
 10
4.0965794E+001
 20
2.8497318E+001
 11
4.1021794E+001
 21
2.8497318E+001
  0
LINE
  5
129
100
AcDbEntity
  8
V9L1
100
AcDbLine
  6
CONTINUOUS
 62
1
 10
4.0615794E+001
 20
2.8847318E+001
 11
4.0615794E+001
 21
2.8903318E+001
  0
LINE
  5
12a
100
AcDbEntity
  8
V9L1
100
AcDbLine
  6
CONTINUOUS
 62
1
 10
4.0265794E+001
 20
2.8497318E+001
 11
4.0209794E+001
 21
2.8497318E+001
  0
LINE
  5
12b
100
AcDbEntity
  8
V9L1
100
AcDbLine
  6
CONTINUOUS
 62
1
 10
4.0615794E+001
 20
2.8147318E+001
 11
4.0615794E+001
 21
2.8091318E+001
  0
LINE
  5
12c
100
AcDbEntity
  8
V9L1
100
AcDbLine
  6
CONTINUOUS
 62
1
 10
5.4664294E+001
 20
1.1979318E+001
 11
5.4164294E+001
 21
1.1979318E+001
  0
LINE
  5
12d
100
AcDbEntity
  8
V9L1
100
AcDbLine
  6
CONTINUOUS
 62
1
 10
5.4414294E+001
 20
1.2229318E+001
 11
5.4414294E+001
 21
1.1729318E+001
  0
LINE
  5
12e
100
AcDbEntity
  8
V9L1
100
AcDbLine
  6
CONTINUOUS
 62
1
 10
5.4764294E+001
 20
1.1979318E+001
 11
5.4820294E+001
 21
1.1979318E+001
  0
LINE
  5
12f
100
AcDbEntity
  8
V9L1
100
AcDbLine
  6
CONTINUOUS
 62
1
 10
5.4414294E+001
 20
1.2329318E+001
 11
5.4414294E+001
 21
1.2385318E+001
  0
LINE
  5
130
100
AcDbEntity
  8
V9L1
100
AcDbLine
  6
CONTINUOUS
 62
1
 10
5.4064294E+001
 20
1.1979318E+001
 11
5.4008294E+001
 21
1.1979318E+001
  0
LINE
  5
131
100
AcDbEntity
  8
V9L1
100
AcDbLine
  6
CONTINUOUS
 62
1
 10
5.4414294E+001
 20
1.1629318E+001
 11
5.4414294E+001
 21
1.1573318E+001
  0
LINE
  5
132
100
AcDbEntity
  8
V9L1
100
AcDbLine
  6
CONTINUOUS
 62
1
 10
4.7664294E+001
 20
1.1979318E+001
 11
4.7164294E+001
 21
1.1979318E+001
  0
LINE
  5
133
100
AcDbEntity
  8
V9L1
100
AcDbLine
  6
CONTINUOUS
 62
1
 10
4.7414294E+001
 20
1.2229318E+001
 11
4.7414294E+001
 21
1.1729318E+001
  0
LINE
  5
134
100
AcDbEntity
  8
V9L1
100
AcDbLine
  6
CONTINUOUS
 62
1
 10
4.7764294E+001
 20
1.1979318E+001
 11
4.7820294E+001
 21
1.1979318E+001
  0
LINE
  5
135
100
AcDbEntity
  8
V9L1
100
AcDbLine
  6
CONTINUOUS
 62
1
 10
4.7414294E+001
 20
1.2329318E+001
 11
4.7414294E+001
 21
1.2385318E+001
  0
LINE
  5
136
100
AcDbEntity
  8
V9L1
100
AcDbLine
  6
CONTINUOUS
 62
1
 10
4.7064294E+001
 20
1.1979318E+001
 11
4.7008294E+001
 21
1.1979318E+001
  0
LINE
  5
137
100
AcDbEntity
  8
V9L1
100
AcDbLine
  6
CONTINUOUS
 62
1
 10
4.7414294E+001
 20
1.1629318E+001
 11
4.7414294E+001
 21
1.1573318E+001
  0
LINE
  5
138
100
AcDbEntity
  8
V9L1
100
AcDbLine
  6
CONTINUOUS
 62
1
 10
4.0664294E+001
 20
1.1979318E+001
 11
4.0164294E+001
 21
1.1979318E+001
  0
LINE
  5
139
100
AcDbEntity
  8
V9L1
100
AcDbLine
  6
CONTINUOUS
 62
1
 10
4.0414294E+001
 20
1.2229318E+001
 11
4.0414294E+001
 21
1.1729318E+001
  0
LINE
  5
13a
100
AcDbEntity
  8
V9L1
100
AcDbLine
  6
CONTINUOUS
 62
1
 10
4.0764294E+001
 20
1.1979318E+001
 11
4.0820294E+001
 21
1.1979318E+001
  0
LINE
  5
13b
100
AcDbEntity
  8
V9L1
100
AcDbLine
  6
CONTINUOUS
 62
1
 10
4.0414294E+001
 20
1.2329318E+001
 11
4.0414294E+001
 21
1.2385318E+001
  0
LINE
  5
13c
100
AcDbEntity
  8
V9L1
100
AcDbLine
  6
CONTINUOUS
 62
1
 10
4.0064294E+001
 20
1.1979318E+001
 11
4.0008294E+001
 21
1.1979318E+001
  0
LINE
  5
13d
100
AcDbEntity
  8
V9L1
100
AcDbLine
  6
CONTINUOUS
 62
1
 10
4.0414294E+001
 20
1.1629318E+001
 11
4.0414294E+001
 21
1.1573318E+001
  0
LINE
  5
13e
100
AcDbEntity
  8
V12L1
100
AcDbLine
  6
CONTINUOUS
 62
1
 10
2.3466673E+001
 20
1.1987166E+001
 11
2.2966673E+001
 21
1.1987166E+001
  0
LINE
  5
13f
100
AcDbEntity
  8
V12L1
100
AcDbLine
  6
CONTINUOUS
 62
1
 10
2.3216673E+001
 20
1.2237166E+001
 11
2.3216673E+001
 21
1.1737166E+001
  0
LINE
  5
140
100
AcDbEntity
  8
V12L1
100
AcDbLine
  6
CONTINUOUS
 62
1
 10
2.3566673E+001
 20
1.1987166E+001
 11
2.3622673E+001
 21
1.1987166E+001
  0
LINE
  5
141
100
AcDbEntity
  8
V12L1
100
AcDbLine
  6
CONTINUOUS
 62
1
 10
2.3216673E+001
 20
1.2337166E+001
 11
2.3216673E+001
 21
1.2393166E+001
  0
LINE
  5
142
100
AcDbEntity
  8
V12L1
100
AcDbLine
  6
CONTINUOUS
 62
1
 10
2.2866673E+001
 20
1.1987166E+001
 11
2.2810673E+001
 21
1.1987166E+001
  0
LINE
  5
143
100
AcDbEntity
  8
V12L1
100
AcDbLine
  6
CONTINUOUS
 62
1
 10
2.3216673E+001
 20
1.1637166E+001
 11
2.3216673E+001
 21
1.1581166E+001
  0
LINE
  5
144
100
AcDbEntity
  8
V12L1
100
AcDbLine
  6
CONTINUOUS
 62
1
 10
1.6466673E+001
 20
1.1987166E+001
 11
1.5966673E+001
 21
1.1987166E+001
  0
LINE
  5
145
100
AcDbEntity
  8
V12L1
100
AcDbLine
  6
CONTINUOUS
 62
1
 10
1.6216673E+001
 20
1.2237166E+001
 11
1.6216673E+001
 21
1.1737166E+001
  0
LINE
  5
146
100
AcDbEntity
  8
V12L1
100
AcDbLine
  6
CONTINUOUS
 62
1
 10
1.6566673E+001
 20
1.1987166E+001
 11
1.6622673E+001
 21
1.1987166E+001
  0
LINE
  5
147
100
AcDbEntity
  8
V12L1
100
AcDbLine
  6
CONTINUOUS
 62
1
 10
1.6216673E+001
 20
1.2337166E+001
 11
1.6216673E+001
 21
1.2393166E+001
  0
LINE
  5
148
100
AcDbEntity
  8
V12L1
100
AcDbLine
  6
CONTINUOUS
 62
1
 10
1.5866673E+001
 20
1.1987166E+001
 11
1.5810673E+001
 21
1.1987166E+001
  0
LINE
  5
149
100
AcDbEntity
  8
V12L1
100
AcDbLine
  6
CONTINUOUS
 62
1
 10
1.6216673E+001
 20
1.1637166E+001
 11
1.6216673E+001
 21
1.1581166E+001
  0
LINE
  5
14a
100
AcDbEntity
  8
V12L1
100
AcDbLine
  6
CONTINUOUS
 62
1
 10
9.4666725
 20
1.1987166E+001
 11
8.9666725
 21
1.1987166E+001
  0
LINE
  5
14b
100
AcDbEntity
  8
V12L1
100
AcDbLine
  6
CONTINUOUS
 62
1
 10
9.2166725
 20
1.2237166E+001
 11
9.2166725
 21
1.1737166E+001
  0
LINE
  5
14c
100
AcDbEntity
  8
V12L1
100
AcDbLine
  6
CONTINUOUS
 62
1
 10
9.5666725
 20
1.1987166E+001
 11
9.6226725
 21
1.1987166E+001
  0
LINE
  5
14d
100
AcDbEntity
  8
V12L1
100
AcDbLine
  6
CONTINUOUS
 62
1
 10
9.2166725
 20
1.2337166E+001
 11
9.2166725
 21
1.2393166E+001
  0
LINE
  5
14e
100
AcDbEntity
  8
V12L1
100
AcDbLine
  6
CONTINUOUS
 62
1
 10
8.8666725
 20
1.1987166E+001
 11
8.8106725
 21
1.1987166E+001
  0
LINE
  5
14f
100
AcDbEntity
  8
V12L1
100
AcDbLine
  6
CONTINUOUS
 62
1
 10
9.2166725
 20
1.1637166E+001
 11
9.2166725
 21
1.1581166E+001
  0
LINE
  5
150
100
AcDbEntity
  8
V12L1
100
AcDbLine
  6
CONTINUOUS
 62
1
 10
2.3469672E+001
 20
5.5774666E+001
 11
2.2969672E+001
 21
5.5774666E+001
  0
LINE
  5
151
100
AcDbEntity
  8
V12L1
100
AcDbLine
  6
CONTINUOUS
 62
1
 10
2.3219672E+001
 20
5.6024666E+001
 11
2.3219672E+001
 21
5.5524666E+001
  0
LINE
  5
152
100
AcDbEntity
  8
V12L1
100
AcDbLine
  6
CONTINUOUS
 62
1
 10
2.3569672E+001
 20
5.5774666E+001
 11
2.3625672E+001
 21
5.5774666E+001
  0
LINE
  5
153
100
AcDbEntity
  8
V12L1
100
AcDbLine
  6
CONTINUOUS
 62
1
 10
2.3219672E+001
 20
5.6124666E+001
 11
2.3219672E+001
 21
5.6180666E+001
  0
LINE
  5
154
100
AcDbEntity
  8
V12L1
100
AcDbLine
  6
CONTINUOUS
 62
1
 10
2.2869672E+001
 20
5.5774666E+001
 11
2.2813672E+001
 21
5.5774666E+001
  0
LINE
  5
155
100
AcDbEntity
  8
V12L1
100
AcDbLine
  6
CONTINUOUS
 62
1
 10
2.3219672E+001
 20
5.5424666E+001
 11
2.3219672E+001
 21
5.5368666E+001
  0
LINE
  5
156
100
AcDbEntity
  8
V12L1
100
AcDbLine
  6
CONTINUOUS
 62
1
 10
1.6469672E+001
 20
5.5774666E+001
 11
1.5969672E+001
 21
5.5774666E+001
  0
LINE
  5
157
100
AcDbEntity
  8
V12L1
100
AcDbLine
  6
CONTINUOUS
 62
1
 10
1.6219672E+001
 20
5.6024666E+001
 11
1.6219672E+001
 21
5.5524666E+001
  0
LINE
  5
158
100
AcDbEntity
  8
V12L1
100
AcDbLine
  6
CONTINUOUS
 62
1
 10
1.6569672E+001
 20
5.5774666E+001
 11
1.6625672E+001
 21
5.5774666E+001
  0
LINE
  5
159
100
AcDbEntity
  8
V12L1
100
AcDbLine
  6
CONTINUOUS
 62
1
 10
1.6219672E+001
 20
5.6124666E+001
 11
1.6219672E+001
 21
5.6180666E+001
  0
LINE
  5
15a
100
AcDbEntity
  8
V12L1
100
AcDbLine
  6
CONTINUOUS
 62
1
 10
1.5869672E+001
 20
5.5774666E+001
 11
1.5813672E+001
 21
5.5774666E+001
  0
LINE
  5
15b
100
AcDbEntity
  8
V12L1
100
AcDbLine
  6
CONTINUOUS
 62
1
 10
1.6219672E+001
 20
5.5424666E+001
 11
1.6219672E+001
 21
5.5368666E+001
  0
LINE
  5
15c
100
AcDbEntity
  8
V12L1
100
AcDbLine
  6
CONTINUOUS
 62
1
 10
9.4696724
 20
5.5774666E+001
 11
8.9696724
 21
5.5774666E+001
  0
LINE
  5
15d
100
AcDbEntity
  8
V12L1
100
AcDbLine
  6
CONTINUOUS
 62
1
 10
9.2196724
 20
5.6024666E+001
 11
9.2196724
 21
5.5524666E+001
  0
LINE
  5
15e
100
AcDbEntity
  8
V12L1
100
AcDbLine
  6
CONTINUOUS
 62
1
 10
9.5696724
 20
5.5774666E+001
 11
9.6256724
 21
5.5774666E+001
  0
LINE
  5
15f
100
AcDbEntity
  8
V12L1
100
AcDbLine
  6
CONTINUOUS
 62
1
 10
9.2196724
 20
5.6124666E+001
 11
9.2196724
 21
5.6180666E+001
  0
LINE
  5
160
100
AcDbEntity
  8
V12L1
100
AcDbLine
  6
CONTINUOUS
 62
1
 10
8.8696724
 20
5.5774666E+001
 11
8.8136724
 21
5.5774666E+001
  0
LINE
  5
161
100
AcDbEntity
  8
V12L1
100
AcDbLine
  6
CONTINUOUS
 62
1
 10
9.2196724
 20
5.5424666E+001
 11
9.2196724
 21
5.5368666E+001
  0
TEXT
  5
162
100
AcDbEntity
  8
V9L1
100
AcDbText
  6
CONTINUOUS
 62
1
 10
4.2622464E+001
 20
5.9033884
 40
5.0E-001
  1
EXTERNAL MOUNTING PLAN
100
AcDbText
  0
TEXT
  5
163
100
AcDbEntity
  8
V12L1
100
AcDbText
  6
CONTINUOUS
 62
1
 10
1.0508031E+001
 20
6.2575916
 40
5.0E-001
  1
INTERNAL MOUNTING PLAN
100
AcDbText
  0
INSERT
  5
164
100
AcDbEntity
100
AcDbBlockReference
  2
*TX156
  8
V9L1
 10
4.0379176E+001
 20
6.0686832E+001
  0
INSERT
  5
165
100
AcDbEntity
100
AcDbBlockReference
  2
*TX157
  8
V9L1
 10
2.3517544E+001
 20
-6.1171909
  0
LINE
  5
166
100
AcDbEntity
  8
V9L1
100
AcDbLine
  6
HIDDEN
 62
1
 10
3.9902692E+001
 20
5.3265818E+001
 11
3.9902692E+001
 21
4.0511818E+001
  0
LINE
  5
167
100
AcDbEntity
  8
V9L1
100
AcDbLine
  6
HIDDEN
 62
1
 10
4.0168294E+001
 20
2.2795818E+001
 11
5.4654294E+001
 21
2.2795818E+001
  0
LINE
  5
168
100
AcDbEntity
  8
V9L1
100
AcDbLine
  6
HIDDEN
 62
1
 10
5.4654294E+001
 20
2.2795818E+001
 11
5.4654294E+001
 21
2.7795818E+001
  0
LINE
  5
169
100
AcDbEntity
  8
V9L1
100
AcDbLine
  6
HIDDEN
 62
1
 10
5.4654294E+001
 20
2.7795818E+001
 11
4.0168294E+001
 21
2.7795818E+001
  0
LINE
  5
16a
100
AcDbEntity
  8
V9L1
100
AcDbLine
  6
HIDDEN
 62
1
 10
3.9902692E+001
 20
4.0511818E+001
 11
5.4910294E+001
 21
4.0511818E+001
  0
LINE
  5
16b
100
AcDbEntity
  8
V9L1
100
AcDbLine
  6
HIDDEN
 62
1
 10
5.4910294E+001
 20
4.0511818E+001
 11
5.4910294E+001
 21
5.3265818E+001
  0
LINE
  5
16c
100
AcDbEntity
  8
V9L1
100
AcDbLine
  6
HIDDEN
 62
1
 10
4.0168294E+001
 20
2.7795818E+001
 11
4.0168294E+001
 21
2.2795818E+001
  0
LINE
  5
16d
100
AcDbEntity
  8
V9L1
100
AcDbLine
  6
CONTINUOUS
 62
1
 10
3.8867294E+001
 20
1.1741818E+001
 11
5.5955294E+001
 21
1.1741818E+001
  0
LINE
  5
16e
100
AcDbEntity
  8
V9L1
100
AcDbLine
  6
CONTINUOUS
 62
1
 10
5.5955294E+001
 20
1.1741818E+001
 11
5.5955294E+001
 21
5.5142818E+001
  0
LINE
  5
16f
100
AcDbEntity
  8
V9L1
100
AcDbLine
  6
CONTINUOUS
 62
1
 10
5.5955294E+001
 20
5.5142818E+001
 11
3.8867294E+001
 21
5.5142818E+001
  0
LINE
  5
170
100
AcDbEntity
  8
V9L1
100
AcDbLine
  6
CONTINUOUS
 62
1
 10
3.8867294E+001
 20
5.5142818E+001
 11
3.8867294E+001
 21
1.1741818E+001
  0
LINE
  5
171
100
AcDbEntity
  8
V9L1
100
AcDbLine
  6
HIDDEN
 62
1
 10
5.4910294E+001
 20
5.3265818E+001
 11
3.9902692E+001
 21
5.3265818E+001
  0
TEXT
  5
172
100
AcDbEntity
  8
V9L1
100
AcDbText
  6
CONTINUOUS
 62
1
 10
4.5886757E+001
 20
4.8228216E+001
 40
5.0E-001
  1
CUTOUT
100
AcDbText
  0
TEXT
  5
173
100
AcDbEntity
  8
V9L1
100
AcDbText
  6
CONTINUOUS
 62
1
 10
4.5837359E+001
 20
2.4973858E+001
 40
5.0E-001
  1
CUTOUT
100
AcDbText
  0
POLYLINE
  5
174
100
AcDbEntity
  8
V9L1
100
AcDb2dPolyline
  6
CONTINUOUS
 62
1
 66
1
 40
2.0E-002
 41
2.0E-002
 70
0
  0
VERTEX
  5
175
100
AcDbEntity
  8
V9L1
100
AcDbVertex
100
AcDb2dVertex
 42
1.0
 10
5.4368794E+001
 20
2.8499818E+001
 70
0
  0
VERTEX
  5
176
100
AcDbEntity
  8
V9L1
100
AcDbVertex
100
AcDb2dVertex
 42
1.0
 10
5.4056794E+001
 20
2.8499818E+001
 70
0
  0
VERTEX
  5
177
100
AcDbEntity
  8
V9L1
100
AcDbVertex
100
AcDb2dVertex
 42
0.0
 10
5.4368794E+001
 20
2.8499818E+001
 70
0
  0
SEQEND
  5
178
100
AcDbEntity
  0
POLYLINE
  5
179
100
AcDbEntity
  8
V9L1
100
AcDb2dPolyline
  6
CONTINUOUS
 62
1
 66
1
 40
2.0E-002
 41
2.0E-002
 70
0
  0
VERTEX
  5
17a
100
AcDbEntity
  8
V9L1
100
AcDbVertex
100
AcDb2dVertex
 42
1.0
 10
4.0771794E+001
 20
2.8497318E+001
 70
0
  0
VERTEX
  5
17b
100
AcDbEntity
  8
V9L1
100
AcDbVertex
100
AcDb2dVertex
 42
1.0
 10
4.0459794E+001
 20
2.8497318E+001
 70
0
  0
VERTEX
  5
17c
100
AcDbEntity
  8
V9L1
100
AcDbVertex
100
AcDb2dVertex
 42
0.0
 10
4.0771794E+001
 20
2.8497318E+001
 70
0
  0
SEQEND
  5
17d
100
AcDbEntity
  0
POLYLINE
  5
17e
100
AcDbEntity
  8
V9L1
100
AcDb2dPolyline
  6
CONTINUOUS
 62
1
 66
1
 40
2.0E-002
 41
2.0E-002
 70
0
  0
VERTEX
  5
17f
100
AcDbEntity
  8
V9L1
100
AcDbVertex
100
AcDb2dVertex
 42
1.0
 10
4.0771794E+001
 20
3.9639818E+001
 70
0
  0
VERTEX
  5
180
100
AcDbEntity
  8
V9L1
100
AcDbVertex
100
AcDb2dVertex
 42
1.0
 10
4.0459794E+001
 20
3.9639818E+001
 70
0
  0
VERTEX
  5
181
100
AcDbEntity
  8
V9L1
100
AcDbVertex
100
AcDb2dVertex
 42
0.0
 10
4.0771794E+001
 20
3.9639818E+001
 70
0
  0
SEQEND
  5
182
100
AcDbEntity
  0
POLYLINE
  5
183
100
AcDbEntity
  8
V9L1
100
AcDb2dPolyline
  6
CONTINUOUS
 62
1
 66
1
 40
2.0E-002
 41
2.0E-002
 70
0
  0
VERTEX
  5
184
100
AcDbEntity
  8
V9L1
100
AcDbVertex
100
AcDb2dVertex
 42
1.0
 10
5.4368794E+001
 20
3.9639818E+001
 70
0
  0
VERTEX
  5
185
100
AcDbEntity
  8
V9L1
100
AcDbVertex
100
AcDb2dVertex
 42
1.0
 10
5.4056794E+001
 20
3.9639818E+001
 70
0
  0
VERTEX
  5
186
100
AcDbEntity
  8
V9L1
100
AcDbVertex
100
AcDb2dVertex
 42
0.0
 10
5.4368794E+001
 20
3.9639818E+001
 70
0
  0
SEQEND
  5
187
100
AcDbEntity
  0
POLYLINE
  5
188
100
AcDbEntity
  8
V9L1
100
AcDb2dPolyline
  6
CONTINUOUS
 62
1
 66
1
 40
2.0E-002
 41
2.0E-002
 70
0
  0
VERTEX
  5
189
100
AcDbEntity
  8
V9L1
100
AcDbVertex
100
AcDb2dVertex
 42
1.0
 10
5.482791E+001
 20
5.4551728E+001
 70
0
  0
VERTEX
  5
18a
100
AcDbEntity
  8
V9L1
100
AcDbVertex
100
AcDb2dVertex
 42
1.0
 10
5.451591E+001
 20
5.4551728E+001
 70
0
  0
VERTEX
  5
18b
100
AcDbEntity
  8
V9L1
100
AcDbVertex
100
AcDb2dVertex
 42
0.0
 10
5.482791E+001
 20
5.4551728E+001
 70
0
  0
SEQEND
  5
18c
100
AcDbEntity
  0
POLYLINE
  5
18d
100
AcDbEntity
  8
V9L1
100
AcDb2dPolyline
  6
CONTINUOUS
 62
1
 66
1
 40
2.0E-002
 41
2.0E-002
 70
0
  0
VERTEX
  5
18e
100
AcDbEntity
  8
V9L1
100
AcDbVertex
100
AcDb2dVertex
 42
1.0
 10
4.757091E+001
 20
5.4551728E+001
 70
0
  0
VERTEX
  5
18f
100
AcDbEntity
  8
V9L1
100
AcDbVertex
100
AcDb2dVertex
 42
1.0
 10
4.725891E+001
 20
5.4551728E+001
 70
0
  0
VERTEX
  5
190
100
AcDbEntity
  8
V9L1
100
AcDbVertex
100
AcDb2dVertex
 42
0.0
 10
4.757091E+001
 20
5.4551728E+001
 70
0
  0
SEQEND
  5
191
100
AcDbEntity
  0
POLYLINE
  5
192
100
AcDbEntity
  8
V9L1
100
AcDb2dPolyline
  6
CONTINUOUS
 62
1
 66
1
 40
2.0E-002
 41
2.0E-002
 70
0
  0
VERTEX
  5
193
100
AcDbEntity
  8
V9L1
100
AcDbVertex
100
AcDb2dVertex
 42
1.0
 10
4.031391E+001
 20
5.4551728E+001
 70
0
  0
VERTEX
  5
194
100
AcDbEntity
  8
V9L1
100
AcDbVertex
100
AcDb2dVertex
 42
1.0
 10
4.000191E+001
 20
5.4551728E+001
 70
0
  0
VERTEX
  5
195
100
AcDbEntity
  8
V9L1
100
AcDbVertex
100
AcDb2dVertex
 42
0.0
 10
4.031391E+001
 20
5.4551728E+001
 70
0
  0
SEQEND
  5
196
100
AcDbEntity
  0
POLYLINE
  5
197
100
AcDbEntity
  8
V9L1
100
AcDb2dPolyline
  6
CONTINUOUS
 62
1
 66
1
 40
2.0E-002
 41
2.0E-002
 70
0
  0
VERTEX
  5
198
100
AcDbEntity
  8
V9L1
100
AcDbVertex
100
AcDb2dVertex
 42
1.0
 10
4.0570294E+001
 20
1.1979318E+001
 70
0
  0
VERTEX
  5
199
100
AcDbEntity
  8
V9L1
100
AcDbVertex
100
AcDb2dVertex
 42
1.0
 10
4.0258294E+001
 20
1.1979318E+001
 70
0
  0
VERTEX
  5
19a
100
AcDbEntity
  8
V9L1
100
AcDbVertex
100
AcDb2dVertex
 42
0.0
 10
4.0570294E+001
 20
1.1979318E+001
 70
0
  0
SEQEND
  5
19b
100
AcDbEntity
  0
POLYLINE
  5
19c
100
AcDbEntity
  8
V9L1
100
AcDb2dPolyline
  6
CONTINUOUS
 62
1
 66
1
 40
2.0E-002
 41
2.0E-002
 70
0
  0
VERTEX
  5
19d
100
AcDbEntity
  8
V9L1
100
AcDbVertex
100
AcDb2dVertex
 42
1.0
 10
4.7570294E+001
 20
1.1979318E+001
 70
0
  0
VERTEX
  5
19e
100
AcDbEntity
  8
V9L1
100
AcDbVertex
100
AcDb2dVertex
 42
1.0
 10
4.7258294E+001
 20
1.1979318E+001
 70
0
  0
VERTEX
  5
19f
100
AcDbEntity
  8
V9L1
100
AcDbVertex
100
AcDb2dVertex
 42
0.0
 10
4.7570294E+001
 20
1.1979318E+001
 70
0
  0
SEQEND
  5
1a0
100
AcDbEntity
  0
POLYLINE
  5
1a1
100
AcDbEntity
  8
V9L1
100
AcDb2dPolyline
  6
CONTINUOUS
 62
1
 66
1
 40
2.0E-002
 41
2.0E-002
 70
0
  0
VERTEX
  5
1a2
100
AcDbEntity
  8
V9L1
100
AcDbVertex
100
AcDb2dVertex
 42
1.0
 10
5.4570294E+001
 20
1.1979318E+001
 70
0
  0
VERTEX
  5
1a3
100
AcDbEntity
  8
V9L1
100
AcDbVertex
100
AcDb2dVertex
 42
1.0
 10
5.4258294E+001
 20
1.1979318E+001
 70
0
  0
VERTEX
  5
1a4
100
AcDbEntity
  8
V9L1
100
AcDbVertex
100
AcDb2dVertex
 42
0.0
 10
5.4570294E+001
 20
1.1979318E+001
 70
0
  0
SEQEND
  5
1a5
100
AcDbEntity
  0
LINE
  5
1a6
100
AcDbEntity
  8
V9LDrafting_Hidden_Entities
100
AcDbLine
  6
CONTINUOUS
 62
1
 10
4.941491E+001
 20
5.4551728E+001
 11
4.957091E+001
 21
5.4551728E+001
  0
LINE
  5
1a7
100
AcDbEntity
  8
V9LDrafting_Hidden_Entities
100
AcDbLine
  6
CONTINUOUS
 62
1
 10
4.541491E+001
 20
5.4551728E+001
 11
4.525891E+001
 21
5.4551728E+001
  0
LINE
  5
1a8
100
AcDbEntity
  8
V9LDrafting_Hidden_Entities
100
AcDbLine
  6
CONTINUOUS
 62
1
 10
4.741491E+001
 20
5.2551728E+001
 11
4.741491E+001
 21
5.2395728E+001
  0
LINE
  5
1a9
100
AcDbEntity
  8
V9LDrafting_Hidden_Entities
100
AcDbLine
  6
CONTINUOUS
 62
1
 10
4.215791E+001
 20
5.4551728E+001
 11
4.231391E+001
 21
5.4551728E+001
  0
LINE
  5
1aa
100
AcDbEntity
  8
V9LDrafting_Hidden_Entities
100
AcDbLine
  6
CONTINUOUS
 62
1
 10
4.015791E+001
 20
5.2551728E+001
 11
4.015791E+001
 21
5.2395728E+001
  0
LINE
  5
1ab
100
AcDbEntity
  8
V9LDrafting_Hidden_Entities
100
AcDbLine
  6
CONTINUOUS
 62
1
 10
5.667191E+001
 20
5.4551728E+001
 11
5.682791E+001
 21
5.4551728E+001
  0
LINE
  5
1ac
100
AcDbEntity
  8
V9LDrafting_Hidden_Entities
100
AcDbLine
  6
CONTINUOUS
 62
1
 10
5.267191E+001
 20
5.4551728E+001
 11
5.251591E+001
 21
5.4551728E+001
  0
LINE
  5
1ad
100
AcDbEntity
  8
V9LDrafting_Hidden_Entities
100
AcDbLine
  6
CONTINUOUS
 62
1
 10
5.467191E+001
 20
5.2551728E+001
 11
5.467191E+001
 21
5.2395728E+001
  0
TEXT
  5
1ae
100
AcDbEntity
  8
V9L1
100
AcDbText
  6
CONTINUOUS
 62
1
 10
2.4785497E+001
 20
1.7393699E+001
 40
8.0E-002
  1
TYP
100
AcDbText
  0
TEXT
  5
1af
100
AcDbEntity
  8
V9L1
100
AcDbText
  6
CONTINUOUS
 62
1
 10
2.4675612E+001
 20
3.1898469E+001
 40
8.0E-002
  1
TYP
100
AcDbText
  0
TEXT
  5
1b0
100
AcDbEntity
  8
V9L1
100
AcDbText
  6
CONTINUOUS
 62
1
 10
1.3797035E+001
 20
3.003043E+001
 40
8.0E-002
  1
TYP
100
AcDbText
  0
TEXT
  5
1b1
100
AcDbEntity
  8
V9L1
100
AcDbText
  6
CONTINUOUS
 62
1
 10
9.4016496
 20
5.7459288
 40
8.0E-002
  1
TYP
100
AcDbText
  0
POLYLINE
  5
1b2
100
AcDbEntity
  8
V12L1
100
AcDb2dPolyline
  6
CONTINUOUS
 62
1
 66
1
 40
2.0E-002
 41
2.0E-002
 70
0
  0
VERTEX
  5
1b3
100
AcDbEntity
  8
V12L1
100
AcDbVertex
100
AcDb2dVertex
 42
1.0
 10
2.3372673E+001
 20
1.1987166E+001
 70
0
  0
VERTEX
  5
1b4
100
AcDbEntity
  8
V12L1
100
AcDbVertex
100
AcDb2dVertex
 42
1.0
 10
2.3060673E+001
 20
1.1987166E+001
 70
0
  0
VERTEX
  5
1b5
100
AcDbEntity
  8
V12L1
100
AcDbVertex
100
AcDb2dVertex
 42
0.0
 10
2.3372673E+001
 20
1.1987166E+001
 70
0
  0
SEQEND
  5
1b6
100
AcDbEntity
  0
POLYLINE
  5
1b7
100
AcDbEntity
  8
V12L1
100
AcDb2dPolyline
  6
CONTINUOUS
 62
1
 66
1
 40
2.0E-002
 41
2.0E-002
 70
0
  0
VERTEX
  5
1b8
100
AcDbEntity
  8
V12L1
100
AcDbVertex
100
AcDb2dVertex
 42
1.0
 10
1.6372673E+001
 20
1.1987166E+001
 70
0
  0
VERTEX
  5
1b9
100
AcDbEntity
  8
V12L1
100
AcDbVertex
100
AcDb2dVertex
 42
1.0
 10
1.6060673E+001
 20
1.1987166E+001
 70
0
  0
VERTEX
  5
1ba
100
AcDbEntity
  8
V12L1
100
AcDbVertex
100
AcDb2dVertex
 42
0.0
 10
1.6372673E+001
 20
1.1987166E+001
 70
0
  0
SEQEND
  5
1bb
100
AcDbEntity
  0
POLYLINE
  5
1bc
100
AcDbEntity
  8
V12L1
100
AcDb2dPolyline
  6
CONTINUOUS
 62
1
 66
1
 40
2.0E-002
 41
2.0E-002
 70
0
  0
VERTEX
  5
1bd
100
AcDbEntity
  8
V12L1
100
AcDbVertex
100
AcDb2dVertex
 42
1.0
 10
9.3726725
 20
1.1987166E+001
 70
0
  0
VERTEX
  5
1be
100
AcDbEntity
  8
V12L1
100
AcDbVertex
100
AcDb2dVertex
 42
1.0
 10
9.0606725
 20
1.1987166E+001
 70
0
  0
VERTEX
  5
1bf
100
AcDbEntity
  8
V12L1
100
AcDbVertex
100
AcDb2dVertex
 42
0.0
 10
9.3726725
 20
1.1987166E+001
 70
0
  0
SEQEND
  5
1c0
100
AcDbEntity
  0
POLYLINE
  5
1c1
100
AcDbEntity
  8
V12L1
100
AcDb2dPolyline
  6
CONTINUOUS
 62
1
 66
1
 40
2.0E-002
 41
2.0E-002
 70
0
  0
VERTEX
  5
1c2
100
AcDbEntity
  8
V12L1
100
AcDbVertex
100
AcDb2dVertex
 42
1.0
 10
9.3756724
 20
5.5774666E+001
 70
0
  0
VERTEX
  5
1c3
100
AcDbEntity
  8
V12L1
100
AcDbVertex
100
AcDb2dVertex
 42
1.0
 10
9.0636724
 20
5.5774666E+001
 70
0
  0
VERTEX
  5
1c4
100
AcDbEntity
  8
V12L1
100
AcDbVertex
100
AcDb2dVertex
 42
0.0
 10
9.3756724
 20
5.5774666E+001
 70
0
  0
SEQEND
  5
1c5
100
AcDbEntity
  0
POLYLINE
  5
1c6
100
AcDbEntity
  8
V12L1
100
AcDb2dPolyline
  6
CONTINUOUS
 62
1
 66
1
 40
2.0E-002
 41
2.0E-002
 70
0
  0
VERTEX
  5
1c7
100
AcDbEntity
  8
V12L1
100
AcDbVertex
100
AcDb2dVertex
 42
1.0
 10
1.6375672E+001
 20
5.5774666E+001
 70
0
  0
VERTEX
  5
1c8
100
AcDbEntity
  8
V12L1
100
AcDbVertex
100
AcDb2dVertex
 42
1.0
 10
1.6063672E+001
 20
5.5774666E+001
 70
0
  0
VERTEX
  5
1c9
100
AcDbEntity
  8
V12L1
100
AcDbVertex
100
AcDb2dVertex
 42
0.0
 10
1.6375672E+001
 20
5.5774666E+001
 70
0
  0
SEQEND
  5
1ca
100
AcDbEntity
  0
POLYLINE
  5
1cb
100
AcDbEntity
  8
V12L1
100
AcDb2dPolyline
  6
CONTINUOUS
 62
1
 66
1
 40
2.0E-002
 41
2.0E-002
 70
0
  0
VERTEX
  5
1cc
100
AcDbEntity
  8
V12L1
100
AcDbVertex
100
AcDb2dVertex
 42
1.0
 10
2.3375672E+001
 20
5.5774666E+001
 70
0
  0
VERTEX
  5
1cd
100
AcDbEntity
  8
V12L1
100
AcDbVertex
100
AcDb2dVertex
 42
1.0
 10
2.3063672E+001
 20
5.5774666E+001
 70
0
  0
VERTEX
  5
1ce
100
AcDbEntity
  8
V12L1
100
AcDbVertex
100
AcDb2dVertex
 42
0.0
 10
2.3375672E+001
 20
5.5774666E+001
 70
0
  0
SEQEND
  5
1cf
100
AcDbEntity
  0
LINE
  5
1d0
100
AcDbEntity
  8
V12L1
100
AcDbLine
  6
HIDDEN
 62
1
 10
8.8026724
 20
3.4167166E+001
 11
2.3752672E+001
 21
3.4167166E+001
  0
LINE
  5
1d1
100
AcDbEntity
  8
V12L1
100
AcDbLine
  6
HIDDEN
 62
1
 10
2.3752672E+001
 20
3.4167166E+001
 11
2.3752672E+001
 21
4.0267166E+001
  0
LINE
  5
1d2
100
AcDbEntity
  8
V12L1
100
AcDbLine
  6
HIDDEN
 62
1
 10
2.3752672E+001
 20
4.0267166E+001
 11
8.8026724
 21
4.0267166E+001
  0
LINE
  5
1d3
100
AcDbEntity
  8
V12L1
100
AcDbLine
  6
HIDDEN
 62
1
 10
8.8026724
 20
4.0267166E+001
 11
8.8026724
 21
3.4167166E+001
  0
LINE
  5
1d4
100
AcDbEntity
  8
V12L1
100
AcDbLine
  6
HIDDEN
 62
1
 10
8.8776724
 20
1.3062166E+001
 11
2.3557686E+001
 21
1.3062166E+001
  0
LINE
  5
1d5
100
AcDbEntity
  8
V12L1
100
AcDbLine
  6
HIDDEN
 62
1
 10
2.3557686E+001
 20
2.0455166E+001
 11
8.8776724
 21
2.0455166E+001
  0
LINE
  5
1d6
100
AcDbEntity
  8
V12L1
100
AcDbLine
  6
HIDDEN
 62
1
 10
8.8776724
 20
2.0455166E+001
 11
8.8776724
 21
1.3062166E+001
  0
ENDSEC
  0
SECTION
  2
OBJECTS
  0
DICTIONARY
  5
1d7
100
AcDbDictionary
  3
ACAD_GROUP
350
1d8
  3
ACAD_MLINESTYLE
350
1d9
  0
DICTIONARY
  5
1d8
102
{ACAD_REACTORS
330
1d7
102
}
100
AcDbDictionary
  0
DICTIONARY
  5
1d9
102
{ACAD_REACTORS
330
1d7
102
}
100
AcDbDictionary
  3
STANDARD
350
1da
  0
MLINESTYLE
  5
1da
102
{ACAD_REACTORS
330
1d9
102
}
100
AcDbMlineStyle
  2
STANDARD
 70
0
  3

 62
256
 51
9.0E+001
 52
9.0E+001
 71
2
 49
5.0E-001
 62
256
  6
BYLAYER
 49
-5.0E-001
 62
256
  6
BYLAYER
  0
ENDSEC
  0
EOF
