  0
SECTION
  2
HEADER
  9
$ACADVER
  1
AC1014
999
I-DEAS 13 NX
  9
$EXTMIN
 10
0.0
 20
0.0
  9
$EXTMAX
 10
6.6E+001
 20
6.6E+001
  9
$TEXTSIZE
 40
1.25E-001
  9
$LTSCALE
 40
1.0
  9
$CLAYER
  8
V1L1
  9
$CECOLOR
 62
1
  9
$DIMASZ
 40
1.25E-001
  9
$DIMEXO
 40
6.25E-002
  9
$DIMDLI
 40
2.5E-001
  9
$DIMEXE
 40
1.25E-001
  9
$DIMTP
 40
5.0E-003
  9
$DIMTM
 40
-5.0E-003
  9
$DIMTXT
 40
1.25E-001
  9
$DIMLIM
 70
0
  9
$DIMTIH
 70
1
  9
$DIMTOH
 70
1
  9
$DIMSE1
 70
0
  9
$DIMSE2
 70
0
  9
$DIMTAD
 70
0
  9
$DIMASO
 70
1
  9
$DIMALT
 70
0
  9
$DIMALTD
 70
0
  9
$DIMTOFL
 70
1
  9
$DIMTIX
 70
0
  9
$DIMSAH
 70
0
  9
$DIMSTYLE
  2
DSTYLE1
  9
$DIMTFAC
 40
1.0
  9
$DIMGAP
 40
6.25E-002
  9
$LUNITS
 70
2
  9
$LUPREC
 70
3
  9
$FILLETRAD
 40
2.5E-001
  9
$AUNITS
 70
0
  9
$AUPREC
 70
1
  9
$CHAMFERA
 40
2.5E-001
  9
$CHAMFERB
 40
2.5E-001
  9
$ANGBASE
 50
0.0
  9
$ANGDIR
 70
0
  9
$PEXTMIN
 10
0.0
 20
0.0
 30
0.0
  9
$PEXTMAX
 10
6.6E+001
 20
6.6E+001
 30
0.0
  9
$PLIMMIN
 10
0.0
 20
0.0
  9
$PLIMMAX
 10
6.6E+001
 20
6.6E+001
  9
$PDMODE
 70
2
  9
$PDSIZE
 40
-1.0E-002
  9
$SPLINETYPE
 70
6
  9
$TILEMODE
 70
1
  9
$HANDLING
 70
1
  9
$HANDSEED
  5
f4240
  0
ENDSEC
  0
SECTION
  2
TABLES
  0
TABLE
  2
VPORT
  5
64
100
AcDbSymbolTable
 70
2
  0
VPORT
  5
65
100
AcDbSymbolTableRecord
100
AcDbViewportTableRecord
  2
*Active
 70
0
 10
0.0
 20
0.0
 11
6.6E+001
 21
6.6E+001
 12
3.3E+001
 22
3.3E+001
 13
0.0
 23
0.0
 14
1.0
 24
1.0
 15
0.0
 25
0.0
 16
0.0
 26
0.0
 36
1.0
 17
0.0
 27
0.0
 37
0.0
 40
6.6E+001
 41
1.0
 42
5.0E+001
 43
0.0
 44
0.0
 50
0.0
 51
0.0
 71
0
 72
1000
 73
1
 74
3
 75
0
 76
0
 77
0
 78
0
  0
ENDTAB
  0
TABLE
  2
LTYPE
  5
66
100
AcDbSymbolTable
 70
7
  0
LTYPE
  5
67
100
AcDbSymbolTableRecord
100
AcDbLinetypeTableRecord
  2
BYBLOCK
 70
0
  3

 72
65
 73
0
 40
0.0
  0
LTYPE
  5
68
100
AcDbSymbolTableRecord
100
AcDbLinetypeTableRecord
  2
BYLAYER
 70
0
  3

 72
65
 73
0
 40
0.0
  0
LTYPE
  5
69
100
AcDbSymbolTableRecord
100
AcDbLinetypeTableRecord
  2
CONTINUOUS
 70
0
  3

 72
65
 73
0
 40
0.0
  0
LTYPE
  5
6a
100
AcDbSymbolTableRecord
100
AcDbLinetypeTableRecord
  2
HIDDENNEW0
  3
_ 
 70
64
 72
65
 73
3
 40
1.875E-001
 49
6.25E-002
 74
0
 49
-6.25E-002
 74
0
 49
6.25E-002
 74
0
  0
LTYPE
  5
6b
100
AcDbSymbolTableRecord
100
AcDbLinetypeTableRecord
  2
HIDDENNEW1
  3
_ 
 70
64
 72
65
 73
3
 40
1.875E-001
 49
6.25E-002
 74
0
 49
-6.25E-002
 74
0
 49
6.25E-002
 74
0
  0
LTYPE
  5
6c
100
AcDbSymbolTableRecord
100
AcDbLinetypeTableRecord
  2
HIDDEN
  3
_ 
 70
64
 72
65
 73
3
 40
1.875E-001
 49
6.25E-002
 74
0
 49
-6.25E-002
 74
0
 49
6.25E-002
 74
0
  0
LTYPE
  5
6d
100
AcDbSymbolTableRecord
100
AcDbLinetypeTableRecord
  2
CENTERLINE
  3
_ 
 70
64
 72
65
 73
5
 40
1.25
 49
5.0E-001
 74
0
 49
-6.25E-002
 74
0
 49
1.25E-001
 74
0
 49
-6.25E-002
 74
0
 49
5.0E-001
 74
0
  0
LTYPE
  5
6e
100
AcDbSymbolTableRecord
100
AcDbLinetypeTableRecord
  2
PHANTOM
  3
_ 
 70
64
 72
65
 73
7
 40
1.1875
 49
3.75E-001
 74
0
 49
-6.25E-002
 74
0
 49
1.25E-001
 74
0
 49
-6.25E-002
 74
0
 49
1.25E-001
 74
0
 49
-6.25E-002
 74
0
 49
3.75E-001
 74
0
  0
LTYPE
  5
6f
100
AcDbSymbolTableRecord
100
AcDbLinetypeTableRecord
  2
SHORT_DASH
  3
_ 
 70
64
 72
65
 73
3
 40
1.25E-001
 49
3.125E-002
 74
0
 49
-6.25E-002
 74
0
 49
3.125E-002
 74
0
  0
LTYPE
  5
70
100
AcDbSymbolTableRecord
100
AcDbLinetypeTableRecord
  2
LONG_DASH
  3
_ 
 70
64
 72
65
 73
3
 40
3.75E-001
 49
9.375E-002
 74
0
 49
-1.875E-001
 74
0
 49
9.375E-002
 74
0
  0
ENDTAB
  0
TABLE
  2
LAYER
  5
71
100
AcDbSymbolTable
 70
258
  0
LAYER
  5
72
100
AcDbSymbolTableRecord
100
AcDbLayerTableRecord
  2
0
 70
0
 62
7
  6
CONTINUOUS
  0
LAYER
  5
73
100
AcDbSymbolTableRecord
100
AcDbLayerTableRecord
  2
V1L0
 70
0
 62
7
  6
CONTINUOUS
  0
LAYER
  5
74
100
AcDbSymbolTableRecord
100
AcDbLayerTableRecord
  2
Drafting_Hidden_Entities
 70
1
 62
7
  6
CONTINUOUS
  0
ENDTAB
  0
TABLE
  2
STYLE
  5
75
100
AcDbSymbolTable
 70
1
  0
STYLE
  5
76
100
AcDbSymbolTableRecord
100
AcDbTextStyleTableRecord
  2
STANDARD
 70
64
 40
0.0
 41
1.0
 50
0.0
 71
0
 42
1.0
  3
monotxt.shx
  4

  0
ENDTAB
  0
TABLE
  2
VIEW
  5
77
100
AcDbSymbolTable
 70
0
  0
ENDTAB
  0
TABLE
  2
UCS
  5
78
100
AcDbSymbolTable
 70
0
  0
ENDTAB
  0
TABLE
  2
APPID
  5
79
100
AcDbSymbolTable
 70
1
  0
APPID
  5
7a
100
AcDbSymbolTableRecord
100
AcDbRegAppTableRecord
  2
ACAD
 70
1
  0
ENDTAB
  0
TABLE
  2
DIMSTYLE
  5
7b
100
AcDbSymbolTable
 70
1
  0
DIMSTYLE
105
7c
100
AcDbSymbolTableRecord
100
AcDbDimStyleTableRecord
  2
DSTYLE1
 70
0
  3

  4

  5

  6

  7

 40
1.0
 41
2.0
 42
2.0
 43
3.8E-001
 44
2.0
 45
1.0E-003
 46
0.0
 47
5.0E-003
 48
5.0E-003
 71
0
 72
0
 73
1
 74
1
 75
0
 76
0
 77
0
 78
7
140
2.0
141
9.0E-002
142
0.0
143
2.54E+001
144
1.0
145
0.0
146
1.0
147
1.0
170
0
171
2
172
0
173
0
174
0
175
0
176
0
177
0
178
0
270
2
271
3
272
4
273
2
274
2
275
0
280
0
281
0
282
0
283
1
284
0
285
0
286
0
287
3
288
0
  0
ENDTAB
  0
TABLE
  2
BLOCK_RECORD
  5
7d
100
AcDbSymbolTable
 70
0
  0
BLOCK_RECORD
  5
7e
100
AcDbSymbolTableRecord
100
AcDbBlockTableRecord
  2
*MODEL_SPACE
  0
BLOCK_RECORD
  5
7f
100
AcDbSymbolTableRecord
100
AcDbBlockTableRecord
  2
*PAPER_SPACE
  0
BLOCK_RECORD
  5
80
100
AcDbSymbolTableRecord
100
AcDbBlockTableRecord
  2
*D16332
  0
BLOCK_RECORD
  5
81
100
AcDbSymbolTableRecord
100
AcDbBlockTableRecord
  2
_AH1
  0
BLOCK_RECORD
  5
82
100
AcDbSymbolTableRecord
100
AcDbBlockTableRecord
  2
_AH2
  0
BLOCK_RECORD
  5
83
100
AcDbSymbolTableRecord
100
AcDbBlockTableRecord
  2
_AH12
  3
_AH
  0
BLOCK_RECORD
  5
84
100
AcDbSymbolTableRecord
100
AcDbBlockTableRecord
  2
_AH13
  3
_AH
  0
BLOCK_RECORD
  5
85
100
AcDbSymbolTableRecord
100
AcDbBlockTableRecord
  2
_AH14
  3
_AH
  0
BLOCK_RECORD
  5
86
100
AcDbSymbolTableRecord
100
AcDbBlockTableRecord
  2
_AH15
  3
_AH
  0
BLOCK_RECORD
  5
87
100
AcDbSymbolTableRecord
100
AcDbBlockTableRecord
  2
_AH16
  3
_AH
  0
BLOCK_RECORD
  5
88
100
AcDbSymbolTableRecord
100
AcDbBlockTableRecord
  2
_AH17
  3
_AH
  0
BLOCK_RECORD
  5
89
100
AcDbSymbolTableRecord
100
AcDbBlockTableRecord
  2
_AH18
  3
_AH
  0
BLOCK_RECORD
  5
8a
100
AcDbSymbolTableRecord
100
AcDbBlockTableRecord
  2
_AH19
  3
_AH
  0
BLOCK_RECORD
  5
8b
100
AcDbSymbolTableRecord
100
AcDbBlockTableRecord
  2
_AH20
  3
_AH
  0
BLOCK_RECORD
  5
8c
100
AcDbSymbolTableRecord
100
AcDbBlockTableRecord
  2
_AH21
  3
_AH
  0
BLOCK_RECORD
  5
8d
100
AcDbSymbolTableRecord
100
AcDbBlockTableRecord
  2
*TX71
  3
*TX
  0
BLOCK_RECORD
  5
8e
100
AcDbSymbolTableRecord
100
AcDbBlockTableRecord
  2
*VIEW1
  0
BLOCK_RECORD
  5
8f
100
AcDbSymbolTableRecord
100
AcDbBlockTableRecord
  2
*VIEW9
  0
BLOCK_RECORD
  5
90
100
AcDbSymbolTableRecord
100
AcDbBlockTableRecord
  2
*VIEW10
  0
ENDTAB
  0
ENDSEC
  0
SECTION
  2
BLOCKS
  0
BLOCK
  5
91
100
AcDbEntity
100
AcDbBlockBegin
  2
*MODEL_SPACE
 70
0
 10
0.0
 20
0.0
 30
0.0
  3
*MODEL_SPACE
  1

  0
ENDBLK
  5
92
100
AcDbEntity
100
AcDbBlockEnd
  0
BLOCK
  5
93
100
AcDbEntity
100
AcDbBlockBegin
  2
*PAPER_SPACE
 70
0
 10
0.0
 20
0.0
 30
0.0
  3
*PAPER_SPACE
  1

  0
ENDBLK
  5
94
100
AcDbEntity
100
AcDbBlockEnd
  0
BLOCK
  5
95
100
AcDbEntity
100
AcDbBlockBegin
  2
*VIEW1
  3
*VIEW
 10
0.0
 20
0.0
 70
65
  0
TEXT
  5
96
100
AcDbEntity
  8
V0L1
100
AcDbText
  6
CONTINUOUS
 62
211
 10
0.0
 20
0.0
 40
1.0
  1
BV1XL0.0YL0.0XH6.6E+001YH6.6E+001
 41
1.25E-001
 50
1.0
 51
1.0
100
AcDbText
  0
TEXT
  5
97
100
AcDbEntity
  8
V0L1
100
AcDbText
  6
CONTINUOUS
 62
211
 10
0.0
 20
0.0
 40
1.0
  1
DV1X0.0Y0.0S1.0N1-MAIN
 41
1.25E-001
 50
1.0
 51
1.0
100
AcDbText
  0
ENDBLK
  5
98
100
AcDbEntity
100
AcDbBlockEnd
  0
BLOCK
  5
99
100
AcDbEntity
100
AcDbBlockBegin
  2
*VIEW9
  3
*VIEW
 10
0.0
 20
0.0
 70
65
  0
TEXT
  5
9a
100
AcDbEntity
  8
V0L1
100
AcDbText
  6
CONTINUOUS
 62
211
 10
0.0
 20
0.0
 40
1.0
  1
BV9XL3.5574667E+001YL1.0626098XH6.552761E+001YH6.5055339E+001
 41
1.25E-001
 50
1.0
 51
1.0
100
AcDbText
  0
TEXT
  5
9b
100
AcDbEntity
  8
V0L1
100
AcDbText
  6
CONTINUOUS
 62
211
 10
0.0
 20
0.0
 40
1.0
  1
DV9X4.705096E+001Y3.9394041S1.0N9-EXPLICIT
 41
1.25E-001
 50
1.0
 51
1.0
100
AcDbText
  0
ENDBLK
  5
9c
100
AcDbEntity
100
AcDbBlockEnd
  0
BLOCK
  5
9d
100
AcDbEntity
100
AcDbBlockBegin
  2
*VIEW10
  3
*VIEW
 10
0.0
 20
0.0
 70
65
  0
TEXT
  5
9e
100
AcDbEntity
  8
V0L1
100
AcDbText
  6
CONTINUOUS
 62
211
 10
0.0
 20
0.0
 40
1.0
  1
BV10XL8.264744E-001YL1.0626098XH3.5574667E+001YH6.5055339E+001
 41
1.25E-001
 50
1.0
 51
1.0
100
AcDbText
  0
TEXT
  5
9f
100
AcDbEntity
  8
V0L1
100
AcDbText
  6
CONTINUOUS
 62
211
 10
0.0
 20
0.0
 40
1.0
  1
DV10X2.1055769E+001Y3.09647S1.0N10-EXPLICIT
 41
1.25E-001
 50
1.0
 51
1.0
100
AcDbText
  0
ENDBLK
  5
a0
100
AcDbEntity
100
AcDbBlockEnd
  0
BLOCK
  5
a1
100
AcDbEntity
100
AcDbBlockBegin
  2
_AH12
  3
_AH
 10
0.0
 20
0.0
 70
64
  0
LINE
  5
a2
100
AcDbEntity
  8
V0L1
100
AcDbLine
  6
CONTINUOUS
 62
0
 10
0.0
 20
0.0
 11
1.0
 21
0.0
  0
LINE
  5
a3
100
AcDbEntity
  8
V0L1
100
AcDbLine
  6
CONTINUOUS
 62
0
 10
0.0
 20
0.0
 11
-1.0
 21
0.0
  0
ENDBLK
  5
a4
100
AcDbEntity
100
AcDbBlockEnd
  0
BLOCK
  5
a5
100
AcDbEntity
100
AcDbBlockBegin
  2
_AH13
  3
_AH
 10
0.0
 20
0.0
 70
64
  0
SOLID
  5
a6
100
AcDbEntity
  8
V0L1
100
AcDbTrace
  6
CONTINUOUS
 62
0
 10
0.0
 20
0.0
 11
1.0
 21
-1.66667E-001
 12
1.0
 22
1.66667E-001
 13
0.0
 23
0.0
  0
ENDBLK
  5
a7
100
AcDbEntity
100
AcDbBlockEnd
  0
BLOCK
  5
a8
100
AcDbEntity
100
AcDbBlockBegin
  2
_AH14
  3
_AH
 10
0.0
 20
0.0
 70
64
  0
ENDBLK
  5
a9
100
AcDbEntity
100
AcDbBlockEnd
  0
BLOCK
  5
aa
100
AcDbEntity
100
AcDbBlockBegin
  2
_AH15
  3
_AH
 10
0.0
 20
0.0
 70
64
  0
CIRCLE
  5
ab
100
AcDbEntity
  8
V0L1
100
AcDbCircle
  6
CONTINUOUS
 62
0
 10
0.0
 20
0.0
 40
1.66667E-001
  0
LINE
  5
ac
100
AcDbEntity
  8
V0L1
100
AcDbLine
  6
CONTINUOUS
 62
0
 10
0.0
 20
0.0
 11
-1.0
 21
0.0
  0
ENDBLK
  5
ad
100
AcDbEntity
100
AcDbBlockEnd
  0
BLOCK
  5
ae
100
AcDbEntity
100
AcDbBlockBegin
  2
_AH16
  3
_AH
 10
0.0
 20
0.0
 70
64
  0
POLYLINE
  5
af
100
AcDbEntity
  8
V0L1
100
AcDb2dPolyline
  6
CONTINUOUS
 62
0
 66
1
 40
1.66667E-001
 41
1.66667E-001
 70
0
  0
VERTEX
  5
b0
100
AcDbEntity
  8
V0L1
100
AcDbVertex
100
AcDb2dVertex
 42
1.0
 10
8.3335E-002
 20
0.0
 70
0
  0
VERTEX
  5
b1
100
AcDbEntity
  8
V0L1
100
AcDbVertex
100
AcDb2dVertex
 42
1.0
 10
-8.3335E-002
 20
0.0
 70
0
  0
VERTEX
  5
b2
100
AcDbEntity
  8
V0L1
100
AcDbVertex
100
AcDb2dVertex
 42
0.0
 10
8.3335E-002
 20
0.0
 70
0
  0
SEQEND
  5
b3
100
AcDbEntity
  0
LINE
  5
b4
100
AcDbEntity
  8
V0L1
100
AcDbLine
  6
CONTINUOUS
 62
0
 10
0.0
 20
0.0
 11
-1.0
 21
0.0
  0
ENDBLK
  5
b5
100
AcDbEntity
100
AcDbBlockEnd
  0
BLOCK
  5
b6
100
AcDbEntity
100
AcDbBlockBegin
  2
_AH17
  3
_AH
 10
0.0
 20
0.0
 70
64
  0
LINE
  5
b7
100
AcDbEntity
  8
V0L1
100
AcDbLine
  6
CONTINUOUS
 62
0
 10
-1.66667E-001
 20
-1.66667E-001
 11
1.66667E-001
 21
-1.66667E-001
  0
LINE
  5
b8
100
AcDbEntity
  8
V0L1
100
AcDbLine
  6
CONTINUOUS
 62
0
 10
1.66667E-001
 20
-1.66667E-001
 11
1.66667E-001
 21
1.66667E-001
  0
LINE
  5
b9
100
AcDbEntity
  8
V0L1
100
AcDbLine
  6
CONTINUOUS
 62
0
 10
1.66667E-001
 20
1.66667E-001
 11
-1.66667E-001
 21
1.66667E-001
  0
LINE
  5
ba
100
AcDbEntity
  8
V0L1
100
AcDbLine
  6
CONTINUOUS
 62
0
 10
-1.66667E-001
 20
1.66667E-001
 11
-1.66667E-001
 21
-1.66667E-001
  0
LINE
  5
bb
100
AcDbEntity
  8
V0L1
100
AcDbLine
  6
CONTINUOUS
 62
0
 10
0.0
 20
0.0
 11
-1.0
 21
0.0
  0
ENDBLK
  5
bc
100
AcDbEntity
100
AcDbBlockEnd
  0
BLOCK
  5
bd
100
AcDbEntity
100
AcDbBlockBegin
  2
_AH18
  3
_AH
 10
0.0
 20
0.0
 70
64
  0
SOLID
  5
be
100
AcDbEntity
  8
V0L1
100
AcDbTrace
  6
CONTINUOUS
 62
0
 10
-1.66667E-001
 20
-1.66667E-001
 11
1.66667E-001
 21
-1.66667E-001
 12
-1.66667E-001
 22
1.66667E-001
 13
1.66667E-001
 23
1.66667E-001
  0
LINE
  5
bf
100
AcDbEntity
  8
V0L1
100
AcDbLine
  6
CONTINUOUS
 62
0
 10
0.0
 20
0.0
 11
-1.0
 21
0.0
  0
ENDBLK
  5
c0
100
AcDbEntity
100
AcDbBlockEnd
  0
BLOCK
  5
c1
100
AcDbEntity
100
AcDbBlockBegin
  2
_AH19
  3
_AH
 10
0.0
 20
0.0
 70
64
  0
LINE
  5
c2
100
AcDbEntity
  8
V0L1
100
AcDbLine
  6
CONTINUOUS
 62
0
 10
-5.0E-001
 20
-5.0E-001
 11
5.0E-001
 21
5.0E-001
  0
LINE
  5
c3
100
AcDbEntity
  8
V0L1
100
AcDbLine
  6
CONTINUOUS
 62
0
 10
0.0
 20
0.0
 11
-1.0
 21
0.0
  0
ENDBLK
  5
c4
100
AcDbEntity
100
AcDbBlockEnd
  0
BLOCK
  5
c5
100
AcDbEntity
100
AcDbBlockBegin
  2
_AH20
  3
_AH
 10
0.0
 20
0.0
 70
64
  0
POLYLINE
  5
c6
100
AcDbEntity
  8
V0L1
100
AcDb2dPolyline
  6
CONTINUOUS
 62
0
 66
1
 40
2.0E-002
 41
2.0E-002
 70
0
  0
VERTEX
  5
c7
100
AcDbEntity
  8
V0L1
100
AcDbVertex
100
AcDb2dVertex
 42
4.1421356E-001
 10
-1.66667E-001
 20
-1.66667E-001
 70
0
  0
VERTEX
  5
c8
100
AcDbEntity
  8
V0L1
100
AcDbVertex
100
AcDb2dVertex
 42
0.0
 10
0.0
 20
0.0
 70
0
  0
SEQEND
  5
c9
100
AcDbEntity
  0
POLYLINE
  5
ca
100
AcDbEntity
  8
V0L1
100
AcDb2dPolyline
  6
CONTINUOUS
 62
0
 66
1
 40
2.0E-002
 41
2.0E-002
 70
0
  0
VERTEX
  5
cb
100
AcDbEntity
  8
V0L1
100
AcDbVertex
100
AcDb2dVertex
 42
4.1421356E-001
 10
1.66667E-001
 20
1.66667E-001
 70
0
  0
VERTEX
  5
cc
100
AcDbEntity
  8
V0L1
100
AcDbVertex
100
AcDb2dVertex
 42
0.0
 10
0.0
 20
0.0
 70
0
  0
SEQEND
  5
cd
100
AcDbEntity
  0
LINE
  5
ce
100
AcDbEntity
  8
V0L1
100
AcDbLine
  6
CONTINUOUS
 62
0
 10
0.0
 20
0.0
 11
-1.0
 21
0.0
  0
ENDBLK
  5
cf
100
AcDbEntity
100
AcDbBlockEnd
  0
BLOCK
  5
d0
100
AcDbEntity
100
AcDbBlockBegin
  2
_AH21
  3
_AH
 10
0.0
 20
0.0
 70
64
  0
LINE
  5
d1
100
AcDbEntity
  8
V0L1
100
AcDbLine
  6
CONTINUOUS
 62
0
 10
0.0
 20
0.0
 11
-1.0
 21
-1.66667E-001
  0
LINE
  5
d2
100
AcDbEntity
  8
V0L1
100
AcDbLine
  6
CONTINUOUS
 62
0
 10
-1.0
 20
-1.66667E-001
 11
-1.0
 21
1.66667E-001
  0
LINE
  5
d3
100
AcDbEntity
  8
V0L1
100
AcDbLine
  6
CONTINUOUS
 62
0
 10
-1.0
 20
1.66667E-001
 11
0.0
 21
0.0
  0
ENDBLK
  5
d4
100
AcDbEntity
100
AcDbBlockEnd
  0
BLOCK
  5
d5
100
AcDbEntity
100
AcDbBlockBegin
  2
*TX71
  3
*TX
 10
0.0
 20
0.0
 70
65
  0
TEXT
  5
d6
100
AcDbEntity
  8
V0L1
100
AcDbText
  6
CONTINUOUS
 62
1
 10
0.0
 20
0.0
 40
5.0E-001
  1
        DXF-GA25600A
100
AcDbText
  0
TEXT
  5
d7
100
AcDbEntity
  8
V0L1
100
AcDbText
  6
CONTINUOUS
 62
1
 10
0.0
 20
-7.5E-001
 40
5.0E-001
  1
         KA4C9DP47L
100
AcDbText
  0
TEXT
  5
d8
100
AcDbEntity
  8
V0L1
100
AcDbText
  6
CONTINUOUS
 62
1
 10
0.0
 20
-1.5
 40
5.0E-001
  1
         8/9/11 DW-
100
AcDbText
  0
TEXT
  5
d9
100
AcDbEntity
  8
V0L1
100
AcDbText
  6
CONTINUOUS
 62
1
 10
0.0
 20
-2.25
 40
5.0E-001
  1
       KOOLTRONIC, INC.
100
AcDbText
  0
TEXT
  5
da
100
AcDbEntity
  8
V0L1
100
AcDbText
  6
CONTINUOUS
 62
1
 10
0.0
 20
-3.0
 40
5.0E-001
  1
GEOMETRY IS SUBJECT TO CHANGE
100
AcDbText
  0
ENDBLK
  5
db
100
AcDbEntity
100
AcDbBlockEnd
  0
BLOCK
  5
dc
100
AcDbEntity
100
AcDbBlockBegin
  2
_AH1
 70
0
 10
0.0
 20
0.0
  3
_AH1
  0
LINE
  5
dd
100
AcDbEntity
  8
V0L1
100
AcDbLine
  6
CONTINUOUS
 62
0
 10
-1.0
 20
1.66667E-001
 11
0.0
 21
0.0
  0
LINE
  5
de
100
AcDbEntity
  8
V0L1
100
AcDbLine
  6
CONTINUOUS
 62
0
 10
0.0
 20
0.0
 11
-1.0
 21
-1.66667E-001
  0
LINE
  5
df
100
AcDbEntity
  8
V0L1
100
AcDbLine
  6
CONTINUOUS
 62
0
 10
-1.0
 20
1.66667E-001
 11
-1.0
 21
-1.66667E-001
  0
LINE
  5
e0
100
AcDbEntity
  8
V0L1
100
AcDbLine
  6
CONTINUOUS
 62
0
 10
0.0
 20
0.0
 11
-1.0
 21
0.0
  0
ENDBLK
  5
e1
100
AcDbEntity
100
AcDbBlockEnd
  0
BLOCK
  5
e2
100
AcDbEntity
100
AcDbBlockBegin
  2
_AH2
 70
0
 10
0.0
 20
0.0
  3
_AH2
  0
LINE
  5
e3
100
AcDbEntity
  8
V0L1
100
AcDbLine
  6
CONTINUOUS
 62
0
 10
-1.0
 20
1.66667E-001
 11
0.0
 21
0.0
  0
LINE
  5
e4
100
AcDbEntity
  8
V0L1
100
AcDbLine
  6
CONTINUOUS
 62
0
 10
0.0
 20
0.0
 11
-1.0
 21
-1.66667E-001
  0
LINE
  5
e5
100
AcDbEntity
  8
V0L1
100
AcDbLine
  6
CONTINUOUS
 62
0
 10
0.0
 20
0.0
 11
-1.0
 21
0.0
  0
ENDBLK
  5
e6
100
AcDbEntity
100
AcDbBlockEnd
  0
BLOCK
  5
e7
100
AcDbEntity
100
AcDbBlockBegin
  2
*D16332
  3
*D
 10
0.0
 20
0.0
 70
65
  0
LINE
  5
e8
100
AcDbEntity
  8
V9L1
100
AcDbLine
  6
CONTINUOUS
 62
211
 10
4.3020775E+001
 20
1.892529E+001
 11
3.678369E+001
 21
1.892529E+001
  0
LINE
  5
e9
100
AcDbEntity
  8
V9L1
100
AcDbLine
  6
CONTINUOUS
 62
211
 10
4.1677288E+001
 20
7.8712897
 11
3.678369E+001
 21
7.8712897
  0
LINE
  5
ea
100
AcDbEntity
  8
V9L1
100
AcDbLine
  6
CONTINUOUS
 62
211
 10
3.878369E+001
 20
1.892529E+001
 11
3.878369E+001
 21
1.5882013E+001
  0
LINE
  5
eb
100
AcDbEntity
  8
V9L1
100
AcDbLine
  6
CONTINUOUS
 62
211
 10
3.878369E+001
 20
7.8712897
 11
3.878369E+001
 21
1.1882013E+001
  0
TEXT
  5
ec
100
AcDbEntity
  8
V9L1
100
AcDbText
  6
CONTINUOUS
 62
211
 10
3.278369E+001
 20
1.2882013E+001
 40
2.0
  1
11.054
100
AcDbText
  0
INSERT
  5
ed
100
AcDbEntity
100
AcDbBlockReference
  2
_AH1
  8
V9L1
 62
211
 10
3.878369E+001
 20
1.892529E+001
 41
2.0
 42
2.0
 43
2.0
 50
9.0E+001
  0
INSERT
  5
ee
100
AcDbEntity
100
AcDbBlockReference
  2
_AH1
  8
V9L1
 62
211
 10
3.878369E+001
 20
7.8712897
 41
2.0
 42
2.0
 43
2.0
 50
2.7E+002
  0
ENDBLK
  5
ef
100
AcDbEntity
100
AcDbBlockEnd
  0
ENDSEC
  0
SECTION
  2
ENTITIES
  0
LINE
  5
f0
100
AcDbEntity
  8
V9L1
100
AcDbLine
  6
CONTINUOUS
 62
1
 10
5.9269275E+001
 20
2.462929E+001
 11
5.8769275E+001
 21
2.462929E+001
  0
LINE
  5
f1
100
AcDbEntity
  8
V9L1
100
AcDbLine
  6
CONTINUOUS
 62
1
 10
5.9019275E+001
 20
2.487929E+001
 11
5.9019275E+001
 21
2.437929E+001
  0
LINE
  5
f2
100
AcDbEntity
  8
V9L1
100
AcDbLine
  6
CONTINUOUS
 62
1
 10
5.9394275E+001
 20
2.462929E+001
 11
5.9425275E+001
 21
2.462929E+001
  0
LINE
  5
f3
100
AcDbEntity
  8
V9L1
100
AcDbLine
  6
CONTINUOUS
 62
1
 10
5.9019275E+001
 20
2.500429E+001
 11
5.9019275E+001
 21
2.503529E+001
  0
LINE
  5
f4
100
AcDbEntity
  8
V9L1
100
AcDbLine
  6
CONTINUOUS
 62
1
 10
5.8644275E+001
 20
2.462929E+001
 11
5.8613275E+001
 21
2.462929E+001
  0
LINE
  5
f5
100
AcDbEntity
  8
V9L1
100
AcDbLine
  6
CONTINUOUS
 62
1
 10
5.9019275E+001
 20
2.425429E+001
 11
5.9019275E+001
 21
2.422329E+001
  0
LINE
  5
f6
100
AcDbEntity
  8
V9L1
100
AcDbLine
  6
CONTINUOUS
 62
1
 10
4.5672275E+001
 20
2.462929E+001
 11
4.5172275E+001
 21
2.462929E+001
  0
LINE
  5
f7
100
AcDbEntity
  8
V9L1
100
AcDbLine
  6
CONTINUOUS
 62
1
 10
4.5422275E+001
 20
2.487929E+001
 11
4.5422275E+001
 21
2.437929E+001
  0
LINE
  5
f8
100
AcDbEntity
  8
V9L1
100
AcDbLine
  6
CONTINUOUS
 62
1
 10
4.5797275E+001
 20
2.462929E+001
 11
4.5828275E+001
 21
2.462929E+001
  0
LINE
  5
f9
100
AcDbEntity
  8
V9L1
100
AcDbLine
  6
CONTINUOUS
 62
1
 10
4.5422275E+001
 20
2.500429E+001
 11
4.5422275E+001
 21
2.503529E+001
  0
LINE
  5
fa
100
AcDbEntity
  8
V9L1
100
AcDbLine
  6
CONTINUOUS
 62
1
 10
4.5047275E+001
 20
2.462929E+001
 11
4.5016275E+001
 21
2.462929E+001
  0
LINE
  5
fb
100
AcDbEntity
  8
V9L1
100
AcDbLine
  6
CONTINUOUS
 62
1
 10
4.5422275E+001
 20
2.425429E+001
 11
4.5422275E+001
 21
2.422329E+001
  0
LINE
  5
fc
100
AcDbEntity
  8
V9L1
100
AcDbLine
  6
CONTINUOUS
 62
1
 10
4.5672275E+001
 20
3.576929E+001
 11
4.5172275E+001
 21
3.576929E+001
  0
LINE
  5
fd
100
AcDbEntity
  8
V9L1
100
AcDbLine
  6
CONTINUOUS
 62
1
 10
4.5422275E+001
 20
3.601929E+001
 11
4.5422275E+001
 21
3.551929E+001
  0
LINE
  5
fe
100
AcDbEntity
  8
V9L1
100
AcDbLine
  6
CONTINUOUS
 62
1
 10
4.5797275E+001
 20
3.576929E+001
 11
4.5828275E+001
 21
3.576929E+001
  0
LINE
  5
ff
100
AcDbEntity
  8
V9L1
100
AcDbLine
  6
CONTINUOUS
 62
1
 10
4.5422275E+001
 20
3.614429E+001
 11
4.5422275E+001
 21
3.617529E+001
  0
LINE
  5
100
100
AcDbEntity
  8
V9L1
100
AcDbLine
  6
CONTINUOUS
 62
1
 10
4.5047275E+001
 20
3.576929E+001
 11
4.5016275E+001
 21
3.576929E+001
  0
LINE
  5
101
100
AcDbEntity
  8
V9L1
100
AcDbLine
  6
CONTINUOUS
 62
1
 10
4.5422275E+001
 20
3.539429E+001
 11
4.5422275E+001
 21
3.536329E+001
  0
LINE
  5
102
100
AcDbEntity
  8
V9L1
100
AcDbLine
  6
CONTINUOUS
 62
1
 10
5.9269275E+001
 20
3.576929E+001
 11
5.8769275E+001
 21
3.576929E+001
  0
LINE
  5
103
100
AcDbEntity
  8
V9L1
100
AcDbLine
  6
CONTINUOUS
 62
1
 10
5.9019275E+001
 20
3.601929E+001
 11
5.9019275E+001
 21
3.551929E+001
  0
LINE
  5
104
100
AcDbEntity
  8
V9L1
100
AcDbLine
  6
CONTINUOUS
 62
1
 10
5.9394275E+001
 20
3.576929E+001
 11
5.9425275E+001
 21
3.576929E+001
  0
LINE
  5
105
100
AcDbEntity
  8
V9L1
100
AcDbLine
  6
CONTINUOUS
 62
1
 10
5.9019275E+001
 20
3.614429E+001
 11
5.9019275E+001
 21
3.617529E+001
  0
LINE
  5
106
100
AcDbEntity
  8
V9L1
100
AcDbLine
  6
CONTINUOUS
 62
1
 10
5.8644275E+001
 20
3.576929E+001
 11
5.8613275E+001
 21
3.576929E+001
  0
LINE
  5
107
100
AcDbEntity
  8
V9L1
100
AcDbLine
  6
CONTINUOUS
 62
1
 10
5.9019275E+001
 20
3.539429E+001
 11
5.9019275E+001
 21
3.536329E+001
  0
LINE
  5
108
100
AcDbEntity
  8
V9L1
100
AcDbLine
  6
CONTINUOUS
 62
1
 10
5.9727775E+001
 20
5.418129E+001
 11
5.9227775E+001
 21
5.418129E+001
  0
LINE
  5
109
100
AcDbEntity
  8
V9L1
100
AcDbLine
  6
CONTINUOUS
 62
1
 10
5.9477775E+001
 20
5.443129E+001
 11
5.9477775E+001
 21
5.393129E+001
  0
LINE
  5
10a
100
AcDbEntity
  8
V9L1
100
AcDbLine
  6
CONTINUOUS
 62
1
 10
5.9852775E+001
 20
5.418129E+001
 11
5.9883775E+001
 21
5.418129E+001
  0
LINE
  5
10b
100
AcDbEntity
  8
V9L1
100
AcDbLine
  6
CONTINUOUS
 62
1
 10
5.9477775E+001
 20
5.455629E+001
 11
5.9477775E+001
 21
5.458729E+001
  0
LINE
  5
10c
100
AcDbEntity
  8
V9L1
100
AcDbLine
  6
CONTINUOUS
 62
1
 10
5.9102775E+001
 20
5.418129E+001
 11
5.9071775E+001
 21
5.418129E+001
  0
LINE
  5
10d
100
AcDbEntity
  8
V9L1
100
AcDbLine
  6
CONTINUOUS
 62
1
 10
5.9477775E+001
 20
5.380629E+001
 11
5.9477775E+001
 21
5.377529E+001
  0
LINE
  5
10e
100
AcDbEntity
  8
V9L1
100
AcDbLine
  6
CONTINUOUS
 62
1
 10
5.2470775E+001
 20
5.418129E+001
 11
5.1970775E+001
 21
5.418129E+001
  0
LINE
  5
10f
100
AcDbEntity
  8
V9L1
100
AcDbLine
  6
CONTINUOUS
 62
1
 10
5.2220775E+001
 20
5.443129E+001
 11
5.2220775E+001
 21
5.393129E+001
  0
LINE
  5
110
100
AcDbEntity
  8
V9L1
100
AcDbLine
  6
CONTINUOUS
 62
1
 10
5.2595775E+001
 20
5.418129E+001
 11
5.2626775E+001
 21
5.418129E+001
  0
LINE
  5
111
100
AcDbEntity
  8
V9L1
100
AcDbLine
  6
CONTINUOUS
 62
1
 10
5.2220775E+001
 20
5.455629E+001
 11
5.2220775E+001
 21
5.458729E+001
  0
LINE
  5
112
100
AcDbEntity
  8
V9L1
100
AcDbLine
  6
CONTINUOUS
 62
1
 10
5.1845775E+001
 20
5.418129E+001
 11
5.1814775E+001
 21
5.418129E+001
  0
LINE
  5
113
100
AcDbEntity
  8
V9L1
100
AcDbLine
  6
CONTINUOUS
 62
1
 10
5.2220775E+001
 20
5.380629E+001
 11
5.2220775E+001
 21
5.377529E+001
  0
LINE
  5
114
100
AcDbEntity
  8
V9L1
100
AcDbLine
  6
CONTINUOUS
 62
1
 10
4.5213775E+001
 20
5.418129E+001
 11
4.4713775E+001
 21
5.418129E+001
  0
LINE
  5
115
100
AcDbEntity
  8
V9L1
100
AcDbLine
  6
CONTINUOUS
 62
1
 10
4.4963775E+001
 20
5.443129E+001
 11
4.4963775E+001
 21
5.393129E+001
  0
LINE
  5
116
100
AcDbEntity
  8
V9L1
100
AcDbLine
  6
CONTINUOUS
 62
1
 10
4.5338775E+001
 20
5.418129E+001
 11
4.5369775E+001
 21
5.418129E+001
  0
LINE
  5
117
100
AcDbEntity
  8
V9L1
100
AcDbLine
  6
CONTINUOUS
 62
1
 10
4.4963775E+001
 20
5.455629E+001
 11
4.4963775E+001
 21
5.458729E+001
  0
LINE
  5
118
100
AcDbEntity
  8
V9L1
100
AcDbLine
  6
CONTINUOUS
 62
1
 10
4.4588775E+001
 20
5.418129E+001
 11
4.4557775E+001
 21
5.418129E+001
  0
LINE
  5
119
100
AcDbEntity
  8
V9L1
100
AcDbLine
  6
CONTINUOUS
 62
1
 10
4.4963775E+001
 20
5.380629E+001
 11
4.4963775E+001
 21
5.377529E+001
  0
LINE
  5
11a
100
AcDbEntity
  8
V9L1
100
AcDbLine
  6
CONTINUOUS
 62
1
 10
4.5470776E+001
 20
8.1112897
 11
4.4970776E+001
 21
8.1112897
  0
LINE
  5
11b
100
AcDbEntity
  8
V9L1
100
AcDbLine
  6
CONTINUOUS
 62
1
 10
4.5220776E+001
 20
8.3612897
 11
4.5220776E+001
 21
7.8612897
  0
LINE
  5
11c
100
AcDbEntity
  8
V9L1
100
AcDbLine
  6
CONTINUOUS
 62
1
 10
4.5595776E+001
 20
8.1112897
 11
4.5626776E+001
 21
8.1112897
  0
LINE
  5
11d
100
AcDbEntity
  8
V9L1
100
AcDbLine
  6
CONTINUOUS
 62
1
 10
4.5220776E+001
 20
8.4862897
 11
4.5220776E+001
 21
8.5172897
  0
LINE
  5
11e
100
AcDbEntity
  8
V9L1
100
AcDbLine
  6
CONTINUOUS
 62
1
 10
4.4845776E+001
 20
8.1112897
 11
4.4814776E+001
 21
8.1112897
  0
LINE
  5
11f
100
AcDbEntity
  8
V9L1
100
AcDbLine
  6
CONTINUOUS
 62
1
 10
4.5220776E+001
 20
7.7362897
 11
4.5220776E+001
 21
7.7052897
  0
LINE
  5
120
100
AcDbEntity
  8
V9L1
100
AcDbLine
  6
CONTINUOUS
 62
1
 10
5.2470776E+001
 20
8.1112897
 11
5.1970776E+001
 21
8.1112897
  0
LINE
  5
121
100
AcDbEntity
  8
V9L1
100
AcDbLine
  6
CONTINUOUS
 62
1
 10
5.2220776E+001
 20
8.3612897
 11
5.2220776E+001
 21
7.8612897
  0
LINE
  5
122
100
AcDbEntity
  8
V9L1
100
AcDbLine
  6
CONTINUOUS
 62
1
 10
5.2595776E+001
 20
8.1112897
 11
5.2626776E+001
 21
8.1112897
  0
LINE
  5
123
100
AcDbEntity
  8
V9L1
100
AcDbLine
  6
CONTINUOUS
 62
1
 10
5.2220776E+001
 20
8.4862897
 11
5.2220776E+001
 21
8.5172897
  0
LINE
  5
124
100
AcDbEntity
  8
V9L1
100
AcDbLine
  6
CONTINUOUS
 62
1
 10
5.1845776E+001
 20
8.1112897
 11
5.1814776E+001
 21
8.1112897
  0
LINE
  5
125
100
AcDbEntity
  8
V9L1
100
AcDbLine
  6
CONTINUOUS
 62
1
 10
5.2220776E+001
 20
7.7362897
 11
5.2220776E+001
 21
7.7052897
  0
LINE
  5
126
100
AcDbEntity
  8
V9L1
100
AcDbLine
  6
CONTINUOUS
 62
1
 10
5.9470776E+001
 20
8.1112897
 11
5.8970776E+001
 21
8.1112897
  0
LINE
  5
127
100
AcDbEntity
  8
V9L1
100
AcDbLine
  6
CONTINUOUS
 62
1
 10
5.9220776E+001
 20
8.3612897
 11
5.9220776E+001
 21
7.8612897
  0
LINE
  5
128
100
AcDbEntity
  8
V9L1
100
AcDbLine
  6
CONTINUOUS
 62
1
 10
5.9595776E+001
 20
8.1112897
 11
5.9626776E+001
 21
8.1112897
  0
LINE
  5
129
100
AcDbEntity
  8
V9L1
100
AcDbLine
  6
CONTINUOUS
 62
1
 10
5.9220776E+001
 20
8.4862897
 11
5.9220776E+001
 21
8.5172897
  0
LINE
  5
12a
100
AcDbEntity
  8
V9L1
100
AcDbLine
  6
CONTINUOUS
 62
1
 10
5.8845776E+001
 20
8.1112897
 11
5.8814776E+001
 21
8.1112897
  0
LINE
  5
12b
100
AcDbEntity
  8
V9L1
100
AcDbLine
  6
CONTINUOUS
 62
1
 10
5.9220776E+001
 20
7.7362897
 11
5.9220776E+001
 21
7.7052897
  0
TEXT
  5
12c
100
AcDbEntity
  8
V9L1
100
AcDbText
  6
CONTINUOUS
 62
1
 10
4.7364446E+001
 20
3.502243
 40
5.0E-001
  1
EXTERNAL MOUNTING PLAN
100
AcDbText
  0
TEXT
  5
12d
100
AcDbEntity
  8
V10L1
100
AcDbText
  6
CONTINUOUS
 62
1
 10
1.0144984E+001
 20
2.3525113
 40
5.0E-001
  1
INTERIOR MOUNTING PLAN
100
AcDbText
  0
LINE
  5
12e
100
AcDbEntity
  8
V10L1
100
AcDbLine
  6
CONTINUOUS
 62
1
 10
2.3126514E+001
 20
5.4649415E+001
 11
2.2626514E+001
 21
5.4649415E+001
  0
LINE
  5
12f
100
AcDbEntity
  8
V10L1
100
AcDbLine
  6
CONTINUOUS
 62
1
 10
2.2876514E+001
 20
5.4899415E+001
 11
2.2876514E+001
 21
5.4399415E+001
  0
LINE
  5
130
100
AcDbEntity
  8
V10L1
100
AcDbLine
  6
CONTINUOUS
 62
1
 10
2.3251514E+001
 20
5.4649415E+001
 11
2.3282514E+001
 21
5.4649415E+001
  0
LINE
  5
131
100
AcDbEntity
  8
V10L1
100
AcDbLine
  6
CONTINUOUS
 62
1
 10
2.2876514E+001
 20
5.5024415E+001
 11
2.2876514E+001
 21
5.5055415E+001
  0
LINE
  5
132
100
AcDbEntity
  8
V10L1
100
AcDbLine
  6
CONTINUOUS
 62
1
 10
2.2501514E+001
 20
5.4649415E+001
 11
2.2470514E+001
 21
5.4649415E+001
  0
LINE
  5
133
100
AcDbEntity
  8
V10L1
100
AcDbLine
  6
CONTINUOUS
 62
1
 10
2.2876514E+001
 20
5.4274415E+001
 11
2.2876514E+001
 21
5.4243415E+001
  0
LINE
  5
134
100
AcDbEntity
  8
V10L1
100
AcDbLine
  6
CONTINUOUS
 62
1
 10
1.6135441E+001
 20
5.4649415E+001
 11
1.5635441E+001
 21
5.4649415E+001
  0
LINE
  5
135
100
AcDbEntity
  8
V10L1
100
AcDbLine
  6
CONTINUOUS
 62
1
 10
1.5885441E+001
 20
5.4899415E+001
 11
1.5885441E+001
 21
5.4399415E+001
  0
LINE
  5
136
100
AcDbEntity
  8
V10L1
100
AcDbLine
  6
CONTINUOUS
 62
1
 10
1.6260441E+001
 20
5.4649415E+001
 11
1.6291441E+001
 21
5.4649415E+001
  0
LINE
  5
137
100
AcDbEntity
  8
V10L1
100
AcDbLine
  6
CONTINUOUS
 62
1
 10
1.5885441E+001
 20
5.5024415E+001
 11
1.5885441E+001
 21
5.5055415E+001
  0
LINE
  5
138
100
AcDbEntity
  8
V10L1
100
AcDbLine
  6
CONTINUOUS
 62
1
 10
1.5510441E+001
 20
5.4649415E+001
 11
1.5479441E+001
 21
5.4649415E+001
  0
LINE
  5
139
100
AcDbEntity
  8
V10L1
100
AcDbLine
  6
CONTINUOUS
 62
1
 10
1.5885441E+001
 20
5.4274415E+001
 11
1.5885441E+001
 21
5.4243415E+001
  0
LINE
  5
13a
100
AcDbEntity
  8
V10L1
100
AcDbLine
  6
CONTINUOUS
 62
1
 10
9.1354412
 20
5.4649415E+001
 11
8.6354412
 21
5.4649415E+001
  0
LINE
  5
13b
100
AcDbEntity
  8
V10L1
100
AcDbLine
  6
CONTINUOUS
 62
1
 10
8.8854412
 20
5.4899415E+001
 11
8.8854412
 21
5.4399415E+001
  0
LINE
  5
13c
100
AcDbEntity
  8
V10L1
100
AcDbLine
  6
CONTINUOUS
 62
1
 10
9.2604412
 20
5.4649415E+001
 11
9.2914412
 21
5.4649415E+001
  0
LINE
  5
13d
100
AcDbEntity
  8
V10L1
100
AcDbLine
  6
CONTINUOUS
 62
1
 10
8.8854412
 20
5.5024415E+001
 11
8.8854412
 21
5.5055415E+001
  0
LINE
  5
13e
100
AcDbEntity
  8
V10L1
100
AcDbLine
  6
CONTINUOUS
 62
1
 10
8.5104412
 20
5.4649415E+001
 11
8.4794412
 21
5.4649415E+001
  0
LINE
  5
13f
100
AcDbEntity
  8
V10L1
100
AcDbLine
  6
CONTINUOUS
 62
1
 10
8.8854412
 20
5.4274415E+001
 11
8.8854412
 21
5.4243415E+001
  0
LINE
  5
140
100
AcDbEntity
  8
V10L1
100
AcDbLine
  6
CONTINUOUS
 62
1
 10
2.3135953E+001
 20
7.3283556
 11
2.2635953E+001
 21
7.3283556
  0
LINE
  5
141
100
AcDbEntity
  8
V10L1
100
AcDbLine
  6
CONTINUOUS
 62
1
 10
2.2885953E+001
 20
7.5783556
 11
2.2885953E+001
 21
7.0783556
  0
LINE
  5
142
100
AcDbEntity
  8
V10L1
100
AcDbLine
  6
CONTINUOUS
 62
1
 10
2.3260953E+001
 20
7.3283556
 11
2.3291953E+001
 21
7.3283556
  0
LINE
  5
143
100
AcDbEntity
  8
V10L1
100
AcDbLine
  6
CONTINUOUS
 62
1
 10
2.2885953E+001
 20
7.7033556
 11
2.2885953E+001
 21
7.7343556
  0
LINE
  5
144
100
AcDbEntity
  8
V10L1
100
AcDbLine
  6
CONTINUOUS
 62
1
 10
2.2510953E+001
 20
7.3283556
 11
2.2479953E+001
 21
7.3283556
  0
LINE
  5
145
100
AcDbEntity
  8
V10L1
100
AcDbLine
  6
CONTINUOUS
 62
1
 10
2.2885953E+001
 20
6.9533556
 11
2.2885953E+001
 21
6.9223556
  0
LINE
  5
146
100
AcDbEntity
  8
V10L1
100
AcDbLine
  6
CONTINUOUS
 62
1
 10
1.6135953E+001
 20
7.3283556
 11
1.5635953E+001
 21
7.3283556
  0
LINE
  5
147
100
AcDbEntity
  8
V10L1
100
AcDbLine
  6
CONTINUOUS
 62
1
 10
1.5885953E+001
 20
7.5783556
 11
1.5885953E+001
 21
7.0783556
  0
LINE
  5
148
100
AcDbEntity
  8
V10L1
100
AcDbLine
  6
CONTINUOUS
 62
1
 10
1.6260953E+001
 20
7.3283556
 11
1.6291953E+001
 21
7.3283556
  0
LINE
  5
149
100
AcDbEntity
  8
V10L1
100
AcDbLine
  6
CONTINUOUS
 62
1
 10
1.5885953E+001
 20
7.7033556
 11
1.5885953E+001
 21
7.7343556
  0
LINE
  5
14a
100
AcDbEntity
  8
V10L1
100
AcDbLine
  6
CONTINUOUS
 62
1
 10
1.5510953E+001
 20
7.3283556
 11
1.5479953E+001
 21
7.3283556
  0
LINE
  5
14b
100
AcDbEntity
  8
V10L1
100
AcDbLine
  6
CONTINUOUS
 62
1
 10
1.5885953E+001
 20
6.9533556
 11
1.5885953E+001
 21
6.9223556
  0
LINE
  5
14c
100
AcDbEntity
  8
V10L1
100
AcDbLine
  6
CONTINUOUS
 62
1
 10
9.1359531
 20
7.3283556
 11
8.6359531
 21
7.3283556
  0
LINE
  5
14d
100
AcDbEntity
  8
V10L1
100
AcDbLine
  6
CONTINUOUS
 62
1
 10
8.8859531
 20
7.5783556
 11
8.8859531
 21
7.0783556
  0
LINE
  5
14e
100
AcDbEntity
  8
V10L1
100
AcDbLine
  6
CONTINUOUS
 62
1
 10
9.2609531
 20
7.3283556
 11
9.2919531
 21
7.3283556
  0
LINE
  5
14f
100
AcDbEntity
  8
V10L1
100
AcDbLine
  6
CONTINUOUS
 62
1
 10
8.8859531
 20
7.7033556
 11
8.8859531
 21
7.7343556
  0
LINE
  5
150
100
AcDbEntity
  8
V10L1
100
AcDbLine
  6
CONTINUOUS
 62
1
 10
8.5109531
 20
7.3283556
 11
8.4799531
 21
7.3283556
  0
LINE
  5
151
100
AcDbEntity
  8
V10L1
100
AcDbLine
  6
CONTINUOUS
 62
1
 10
8.8859531
 20
6.9533556
 11
8.8859531
 21
6.9223556
  0
INSERT
  5
152
100
AcDbEntity
100
AcDbBlockReference
  2
*TX71
  8
V9L1
 10
4.4629616E+001
 20
5.9978425E+001
  0
CIRCLE
  5
153
100
AcDbEntity
  8
V9L1
100
AcDbCircle
  6
CONTINUOUS
 62
1
 10
5.9477775E+001
 20
5.418129E+001
 40
1.56E-001
  0
CIRCLE
  5
154
100
AcDbEntity
  8
V9L1
100
AcDbCircle
  6
CONTINUOUS
 62
1
 10
5.2220775E+001
 20
5.418129E+001
 40
1.56E-001
  0
CIRCLE
  5
155
100
AcDbEntity
  8
V9L1
100
AcDbCircle
  6
CONTINUOUS
 62
1
 10
4.4963775E+001
 20
5.418129E+001
 40
1.56E-001
  0
CIRCLE
  5
156
100
AcDbEntity
  8
V9L1
100
AcDbCircle
  6
CONTINUOUS
 62
1
 10
4.5422275E+001
 20
3.576929E+001
 40
1.56E-001
  0
CIRCLE
  5
157
100
AcDbEntity
  8
V9L1
100
AcDbCircle
  6
CONTINUOUS
 62
1
 10
5.9019275E+001
 20
3.576929E+001
 40
1.56E-001
  0
CIRCLE
  5
158
100
AcDbEntity
  8
V9L1
100
AcDbCircle
  6
CONTINUOUS
 62
1
 10
5.9019275E+001
 20
2.462929E+001
 40
1.56E-001
  0
CIRCLE
  5
159
100
AcDbEntity
  8
V9L1
100
AcDbCircle
  6
CONTINUOUS
 62
1
 10
4.5220776E+001
 20
8.1112897
 40
1.56E-001
  0
CIRCLE
  5
15a
100
AcDbEntity
  8
V9L1
100
AcDbCircle
  6
CONTINUOUS
 62
1
 10
5.2220776E+001
 20
8.1112897
 40
1.56E-001
  0
CIRCLE
  5
15b
100
AcDbEntity
  8
V9L1
100
AcDbCircle
  6
CONTINUOUS
 62
1
 10
5.9220776E+001
 20
8.1112897
 40
1.56E-001
  0
LINE
  5
15c
100
AcDbEntity
  8
V9L1
100
AcDbLine
  6
PHANTOM
 62
1
 10
4.3677288E+001
 20
5.4700187E+001
 11
4.3677288E+001
 21
5.4772187E+001
  0
LINE
  5
15d
100
AcDbEntity
  8
V9L1
100
AcDbLine
  6
PHANTOM
 62
1
 10
6.0765288E+001
 20
1.0466187E+001
 11
6.0765288E+001
 21
7.8712897
  0
LINE
  5
15e
100
AcDbEntity
  8
V9L1
100
AcDbLine
  6
CONTINUOUS
 62
1
 10
4.3677288E+001
 20
7.8712897
 11
6.0765288E+001
 21
7.8712897
  0
LINE
  5
15f
100
AcDbEntity
  8
V9L1
100
AcDbLine
  6
CONTINUOUS
 62
1
 10
6.0765288E+001
 20
7.8712897
 11
6.0765288E+001
 21
5.4772187E+001
  0
LINE
  5
160
100
AcDbEntity
  8
V9L1
100
AcDbLine
  6
CONTINUOUS
 62
1
 10
6.0765288E+001
 20
5.4772187E+001
 11
4.3677288E+001
 21
5.4772187E+001
  0
LINE
  5
161
100
AcDbEntity
  8
V9L1
100
AcDbLine
  6
CONTINUOUS
 62
1
 10
4.3677288E+001
 20
5.4772187E+001
 11
4.3677288E+001
 21
7.8712897
  0
DIMENSION
  5
162
100
AcDbEntity
  8
V9LDrafting_Hidden_Entities
100
AcDbDimension
  6
CONTINUOUS
 62
211
  2
*D16332
  3
DSTYLE1
 10
3.878369E+001
 20
7.8712897
 11
3.878369E+001
 21
1.3882013E+001
 70
128
100
AcDbAlignedDimension
 13
4.5020775E+001
 23
1.892529E+001
 14
4.3677288E+001
 24
7.8712897
 40
2.0
 50
9.0E+001
100
AcDbRotatedDimension
1001
ACAD
1000
DSTYLE
1002
{
1070
173
1070
0
1070
5
1000
_AH1
1002
}
  0
LINE
  5
163
100
AcDbEntity
  8
V9L1
100
AcDbLine
  6
HIDDEN
 62
1
 10
4.4977288E+001
 20
1.892529E+001
 11
5.9465288E+001
 21
1.892529E+001
  0
LINE
  5
164
100
AcDbEntity
  8
V9L1
100
AcDbLine
  6
HIDDEN
 62
1
 10
5.9465288E+001
 20
2.392529E+001
 11
4.4977288E+001
 21
2.392529E+001
  0
LINE
  5
165
100
AcDbEntity
  8
V9L1
100
AcDbLine
  6
PHANTOM
 62
1
 10
4.5030775E+001
 20
5.289529E+001
 11
4.4770775E+001
 21
5.289529E+001
  0
LINE
  5
166
100
AcDbEntity
  8
V9L1
100
AcDbLine
  6
HIDDEN
 62
1
 10
5.9725288E+001
 20
5.289529E+001
 11
4.4717288E+001
 21
5.289529E+001
  0
LINE
  5
167
100
AcDbEntity
  8
V9L1
100
AcDbLine
  6
HIDDEN
 62
1
 10
4.4717288E+001
 20
5.289529E+001
 11
4.4717288E+001
 21
3.6645807E+001
  0
LINE
  5
168
100
AcDbEntity
  8
V9L1
100
AcDbLine
  6
HIDDEN
 62
1
 10
5.9725288E+001
 20
3.6645807E+001
 11
5.9725288E+001
 21
5.289529E+001
  0
CIRCLE
  5
169
100
AcDbEntity
  8
V9L1
100
AcDbCircle
  6
CONTINUOUS
 62
1
 10
4.5422275E+001
 20
2.462929E+001
 40
1.56E-001
  0
CIRCLE
  5
16a
100
AcDbEntity
  8
V10L1
100
AcDbCircle
  6
CONTINUOUS
 62
1
 10
1.5885953E+001
 20
7.3283556
 40
1.56E-001
  0
CIRCLE
  5
16b
100
AcDbEntity
  8
V10L1
100
AcDbCircle
  6
CONTINUOUS
 62
1
 10
8.8859531
 20
7.3283556
 40
1.56E-001
  0
CIRCLE
  5
16c
100
AcDbEntity
  8
V10L1
100
AcDbCircle
  6
CONTINUOUS
 62
1
 10
2.2885953E+001
 20
7.3283556
 40
1.56E-001
  0
CIRCLE
  5
16d
100
AcDbEntity
  8
V10L1
100
AcDbCircle
  6
CONTINUOUS
 62
1
 10
2.2876514E+001
 20
5.4649415E+001
 40
1.56E-001
  0
CIRCLE
  5
16e
100
AcDbEntity
  8
V10L1
100
AcDbCircle
  6
CONTINUOUS
 62
1
 10
1.5885441E+001
 20
5.4649415E+001
 40
1.56E-001
  0
CIRCLE
  5
16f
100
AcDbEntity
  8
V10L1
100
AcDbCircle
  6
CONTINUOUS
 62
1
 10
8.8854412
 20
5.4649415E+001
 40
1.56E-001
  0
LINE
  5
170
100
AcDbEntity
  8
V10L1
100
AcDbLine
  6
PHANTOM
 62
1
 10
2.4429441E+001
 20
9.623253
 11
2.4429441E+001
 21
7.0283556
  0
LINE
  5
171
100
AcDbEntity
  8
V10L1
100
AcDbLine
  6
PHANTOM
 62
1
 10
7.3414412
 20
5.3857253E+001
 11
7.3414412
 21
5.3933013E+001
  0
LINE
  5
172
100
AcDbEntity
  8
V10L1
100
AcDbLine
  6
PHANTOM
 62
1
 10
7.3514412
 20
5.3929253E+001
 11
7.3414412
 21
5.3929253E+001
  0
LINE
  5
173
100
AcDbEntity
  8
V10L1
100
AcDbLine
  6
CONTINUOUS
 62
1
 10
7.3414412
 20
7.0283556
 11
2.4429441E+001
 21
7.0283556
  0
LINE
  5
174
100
AcDbEntity
  8
V10L1
100
AcDbLine
  6
CONTINUOUS
 62
1
 10
2.4429441E+001
 20
7.0283556
 11
2.4429441E+001
 21
5.3929253E+001
  0
LINE
  5
175
100
AcDbEntity
  8
V10L1
100
AcDbLine
  6
CONTINUOUS
 62
1
 10
2.4429441E+001
 20
5.3929253E+001
 11
7.3414412
 21
5.3929253E+001
  0
LINE
  5
176
100
AcDbEntity
  8
V10L1
100
AcDbLine
  6
CONTINUOUS
 62
1
 10
7.3414412
 20
5.3929253E+001
 11
7.3414412
 21
7.0283556
  0
LINE
  5
177
100
AcDbEntity
  8
V10L1
100
AcDbLine
  6
HIDDEN
 62
1
 10
8.3524412
 20
2.9508253E+001
 11
2.3418441E+001
 21
2.9508253E+001
  0
LINE
  5
178
100
AcDbEntity
  8
V10L1
100
AcDbLine
  6
HIDDEN
 62
1
 10
2.3418441E+001
 20
2.9508253E+001
 11
2.3418441E+001
 21
3.5608253E+001
  0
LINE
  5
179
100
AcDbEntity
  8
V10L1
100
AcDbLine
  6
HIDDEN
 62
1
 10
2.3418441E+001
 20
3.5608253E+001
 11
8.3524412
 21
3.5608253E+001
  0
LINE
  5
17a
100
AcDbEntity
  8
V10L1
100
AcDbLine
  6
HIDDEN
 62
1
 10
8.5434412
 20
8.4033562
 11
2.3228954E+001
 21
8.4033562
  0
LINE
  5
17b
100
AcDbEntity
  8
V10L1
100
AcDbLine
  6
HIDDEN
 62
1
 10
2.3228954E+001
 20
1.5796253E+001
 11
8.5434412
 21
1.5796253E+001
  0
LINE
  5
17c
100
AcDbEntity
  8
V10L1
100
AcDbLine
  6
HIDDEN
 62
1
 10
8.5434412
 20
1.5796253E+001
 11
8.5434412
 21
8.4033562
  0
LINE
  5
17d
100
AcDbEntity
  8
V10L1
100
AcDbLine
  6
HIDDEN
 62
1
 10
2.3228954E+001
 20
8.4033562
 11
2.3228954E+001
 21
1.5796253E+001
  0
LINE
  5
17e
100
AcDbEntity
  8
V10L1
100
AcDbLine
  6
HIDDEN
 62
1
 10
8.3524412
 20
3.5608253E+001
 11
8.3524412
 21
2.9508253E+001
  0
TEXT
  5
17f
100
AcDbEntity
  8
V10L1
100
AcDbText
  6
CONTINUOUS
 62
1
 10
1.4859729E+001
 20
3.2402055E+001
 40
5.0E-001
  1
CUTOUT
100
AcDbText
  0
TEXT
  5
180
100
AcDbEntity
  8
V10L1
100
AcDbText
  6
CONTINUOUS
 62
1
 10
1.4647332E+001
 20
1.2242435E+001
 40
5.0E-001
  1
CUTOUT
100
AcDbText
  0
TEXT
  5
181
100
AcDbEntity
  8
V10L1
100
AcDbText
  6
CONTINUOUS
 62
1
 10
-4.489765
 20
6.6128809E+001
 40
1.25E-001
  1
INTERNAL MOUNTING PLAN
100
AcDbText
  0
LINE
  5
182
100
AcDbEntity
  8
V9L1
100
AcDbLine
  6
HIDDEN
 62
1
 10
4.4977288E+001
 20
2.392529E+001
 11
4.4977288E+001
 21
1.892529E+001
  0
LINE
  5
183
100
AcDbEntity
  8
V9L1
100
AcDbLine
  6
HIDDEN
 62
1
 10
5.9465288E+001
 20
1.892529E+001
 11
5.9465288E+001
 21
2.392529E+001
  0
TEXT
  5
184
100
AcDbEntity
  8
V9L1
100
AcDbText
  6
CONTINUOUS
 62
1
 10
5.0296869E+001
 20
4.5574158E+001
 40
5.0E-001
  1
CUTOUT
100
AcDbText
  0
TEXT
  5
185
100
AcDbEntity
  8
V9L1
100
AcDbText
  6
CONTINUOUS
 62
1
 10
5.0533004E+001
 20
2.0779927E+001
 40
5.0E-001
  1
CUTOUT
100
AcDbText
  0
LINE
  5
186
100
AcDbEntity
  8
V9L1
100
AcDbLine
  6
HIDDEN
 62
1
 10
4.4717288E+001
 20
3.6645807E+001
 11
5.9725288E+001
 21
3.6645807E+001
  0
TEXT
  5
187
100
AcDbEntity
  8
V9L1
100
AcDbText
  6
CONTINUOUS
 62
1
 10
2.2251541E+001
 20
3.843532E+001
 40
8.0E-002
  1
TYP
100
AcDbText
  0
TEXT
  5
188
100
AcDbEntity
  8
V9L1
100
AcDbText
  6
CONTINUOUS
 62
1
 10
3.6670051E+001
 20
-9.581845
 40
1.0E-001
  1
EXTERNAL MOUNTING PLAN
100
AcDbText
  0
ENDSEC
  0
SECTION
  2
OBJECTS
  0
DICTIONARY
  5
189
100
AcDbDictionary
  3
ACAD_GROUP
350
18a
  3
ACAD_MLINESTYLE
350
18b
  0
DICTIONARY
  5
18a
102
{ACAD_REACTORS
330
189
102
}
100
AcDbDictionary
  0
DICTIONARY
  5
18b
102
{ACAD_REACTORS
330
189
102
}
100
AcDbDictionary
  3
STANDARD
350
18c
  0
MLINESTYLE
  5
18c
102
{ACAD_REACTORS
330
18b
102
}
100
AcDbMlineStyle
  2
STANDARD
 70
0
  3

 62
256
 51
9.0E+001
 52
9.0E+001
 71
2
 49
5.0E-001
 62
256
  6
BYLAYER
 49
-5.0E-001
 62
256
  6
BYLAYER
  0
ENDSEC
  0
EOF
